Crocodile Dundee 1986 x264 720p Esub BluRay Dual Audio English Hindi GOPI SAHI

Crocodile Dundee (1986)

'Crocodile' Dundee (original title)
An American reporter goes to the Australian outback to meet an eccentric crocodile poacher and invites him to New York City.
EN

Director:

Peter Faiman

Writers:

Ken Shadie (screenplay), John Cornell (screenplay) | 2 more credits »
6.6/10

Directed byPeter Faiman
Produced byJohn Cornell
Screenplay byPaul Hogan
Ken Shadie
John Cornell
Story byPaul Hogan
Starring
Music byPeter Best
CinematographyRussell Boyd
Edited byDavid Stiven
Production
company
Rimfire Films
Distributed byHoyts Distribution
(Australia)
Paramount Pictures
(North America)
20th Century Fox
(International)
Release date
  • 24 April 1986 (Australia)
  • 26 September 1986 (United States)
  • 12 December 1986 (UK)
Running time
104 minutes
(Australia)[1]
98 minutes
(International)[2]
CountryAustralia
United States[3]
LanguageEnglish
BudgetA$8.8 million[4]
Box officeUS$328 million[5]


Crocodile Dundee 1986 x264 720p Esub BluRay Dual Audio English Hindi GOPI SAHI

Format                         : Matroska
Format version                 : Version 4
File size                      : 777 MiB
Duration                       : 1 h 37 min
Overall bit rate               : 1 109 kb/s
Movie name                     : Crocodile Dundee 1986 GOPI SAHI
Encoded date                   : UTC 2020-08-25 05:38:09
Writing application            : mkvmerge v46.0.0 ('No Deeper Escape') 32-bit
Writing library                : libebml v1.3.10 + libmatroska v1.5.2

Video
ID                             : 1
Format                         : AVC
Format/Info                    : Advanced Video Codec
Format profile                 : [email protected]
Format settings                : CABAC / 5 Ref Frames
Format settings, CABAC         : Yes
Format settings, Reference fra : 5 frames
Codec ID                       : V_MPEG4/ISO/AVC
Duration                       : 1 h 37 min
Bit rate                       : 899 kb/s
Width                          : 1 280 pixels
Height                         : 544 pixels
Display aspect ratio           : 2.35:1
Frame rate mode                : Constant
Frame rate                     : 23.976 (24000/1001) FPS
Color space                    : YUV
Chroma subsampling             : 4:2:0
Bit depth                      : 8 bits
Scan type                      : Progressive
Bits/(Pixel*Frame)             : 0.054
Stream size                    : 628 MiB (81%)
Title                          : GOPI SAHI
Writing library                : x264 core 157 r2935 545de2f

Audio #1
ID                             : 2
Format                         : AAC LC
Format/Info                    : Advanced Audio Codec Low Complexity
Codec ID                       : A_AAC-2
Duration                       : 1 h 37 min
Bit rate                       : 96.0 kb/s
Channel(s)                     : 2 channels
Channel layout                 : L R
Sampling rate                  : 48.0 kHz
Frame rate                     : 46.875 FPS (1024 SPF)
Compression mode               : Lossy
Delay relative to video        : -15 ms
Stream size                    : 67.2 MiB (9%)
Title                          : GOPI SAHI
Language                       : Hindi
Default                        : Yes
Forced                         : No

Audio #2
ID                             : 3
Format                         : AAC LC
Format/Info                    : Advanced Audio Codec Low Complexity
Codec ID                       : A_AAC-2
Duration                       : 1 h 37 min
Bit rate                       : 96.0 kb/s
Channel(s)                     : 2 channels
Channel layout                 : L R
Sampling rate                  : 48.0 kHz
Frame rate                     : 46.875 FPS (1024 SPF)
Compression mode               : Lossy
Delay relative to video        : -21 ms
Stream size                    : 67.2 MiB (9%)
Title                          : GOPI SAHI
Language                       : English
Default                        : No
Forced                         : No

Text #1
ID                             : 4
Format                         : PGS
Muxing mode                    : zlib
Codec ID                       : S_HDMV/PGS
Codec ID/Info                  : Picture based subtitle format used on BDs/HD-DVDs
Duration                       : 1 h 36 min
Bit rate                       : 18.1 kb/s
Count of elements              : 1934
Stream size                    : 12.6 MiB (2%)
Title                          : Hindi BD-PGS
Language                       : Hindi
Default                        : No
Forced                         : No

Text #2
ID                             : 5
Format                         : PGS
Muxing mode                    : zlib
Codec ID                       : S_HDMV/PGS
Codec ID/Info                  : Picture based subtitle format used on BDs/HD-DVDs
Duration                       : 1 h 32 min
Bit rate                       : 27.3 kb/s
Count of elements              : 1948
Stream size                    : 18.1 MiB (2%)
Title                          : GOPI SAHI
Language                       : English
Default                        : No
Forced                         : No

Menu
00:00:00.000                   : :Opening Credits
00:07:18.605                   : :A Crocodile Legend
00:13:53.583                   : :Mind Over Matter
00:20:16.257                   : :Stick Close to Me
00:29:51.957                   : :Bathing with a Crocodile
00:33:00.770                   : :A Mate of Mine
00:40:05.445                   : :Broadening Horizons
00:50:57.471                   : :Sightseeing
00:53:27.746                   : :A Civilized Meal
00:57:39.539                   : :Off Duty
01:04:50.637                   : :Wash Day
01:11:16.230                   : :Cure for the Common Cold
01:14:12.615                   : :That's A Knife
01:23:52.653                   : :A New York "Walkabout"
01:31:08.797                   : :Subway Communication
01:34:10.478                   : :End Credits