Cold Skin 2017 x264 720p Esub BluRay Dual Audio English Hindi Telugu Tamil GOPI SAHI

Cold Skin (2017)

A young man arrives at a remote island to take a post of weather observer only to find himself defending the watchtower from deadly creatures which live in the island shores.
EN

Director:

Xavier Gens

Writers:

Jesús Olmo (screenplay), Eron Sheean (screenplay) | 1 more credit »

6.0/10
11,417

SpanishLa piel fría
Directed byXavier Gens
Produced by
  • Denise O'Dell
  • Mark Albela
  • Denis Pedregosa
  • Orlando Pedregosa
  • Frederic Bovis
  • Lucette Legot
  • Anna Soler Pont
  • Ricard Domingo
Written byJesús Olmo
Based onCold Skin
by Albert Sánchez Piñol[1]
Starring
Music byVíctor Reyes
Edited byGuillermo de la Cal
Production
company
  • Babieka
  • Kanzaman France
  • Pontas Films
Distributed bySamuel Goldwyn Films
Release date
Country
  • France
  • Spain
LanguageEnglish
Box office$752,552[2]


Format                         : Matroska
Format version                 : Version 4
File size                      : 989 MiB
Duration                       : 1 h 47 min
Overall bit rate               : 1 287 kb/s
Movie name                     : Cold Skin 2017 GOPI SAHI
Encoded date                   : UTC 2020-08-12 10:05:59

Video
ID                             : 1
Format                         : AVC
Format/Info                    : Advanced Video Codec
Format profile                 : [email protected]
Format settings                : CABAC / 5 Ref Frames
Format settings, CABAC         : Yes
Format settings, Reference fra : 5 frames
Codec ID                       : V_MPEG4/ISO/AVC
Duration                       : 1 h 46 min
Bit rate                       : 899 kb/s
Width                          : 1 280 pixels
Height                         : 534 pixels
Display aspect ratio           : 2.40:1
Frame rate mode                : Constant
Frame rate                     : 23.976 (24000/1001) FPS
Color space                    : YUV
Chroma subsampling             : 4:2:0
Bit depth                      : 8 bits
Scan type                      : Progressive
Bits/(Pixel*Frame)             : 0.055
Stream size                    : 684 MiB (69%)
Title                          : GOPI SAHI
Writing library                : x264 core 157 r2935 545de2f

Audio #1
ID                             : 2
Format                         : AAC LC
Format/Info                    : Advanced Audio Codec Low Complexity
Codec ID                       : A_AAC-2
Duration                       : 1 h 46 min
Bit rate                       : 96.0 kb/s
Channel(s)                     : 2 channels
Channel layout                 : L R
Sampling rate                  : 48.0 kHz
Frame rate                     : 46.875 FPS (1024 SPF)
Compression mode               : Lossy
Delay relative to video        : -9 ms
Stream size                    : 73.3 MiB (7%)
Title                          : GOPI SAHI
Language                       : Hindi
Default                        : Yes
Forced                         : No

Audio #2
ID                             : 3
Format                         : AAC LC
Format/Info                    : Advanced Audio Codec Low Complexity
Codec ID                       : A_AAC-2
Duration                       : 1 h 47 min
Bit rate                       : 96.0 kb/s
Channel(s)                     : 2 channels
Channel layout                 : L R
Sampling rate                  : 48.0 kHz
Frame rate                     : 46.875 FPS (1024 SPF)
Compression mode               : Lossy
Delay relative to video        : -21 ms
Stream size                    : 73.4 MiB (7%)
Title                          : GOPI SAHI
Language                       : English
Default                        : No
Forced                         : No

Audio #3
ID                             : 4
Format                         : AAC LC
Format/Info                    : Advanced Audio Codec Low Complexity
Codec ID                       : A_AAC-2
Duration                       : 1 h 46 min
Bit rate                       : 96.0 kb/s
Channel(s)                     : 2 channels
Channel layout                 : L R
Sampling rate                  : 48.0 kHz
Frame rate                     : 46.875 FPS (1024 SPF)
Compression mode               : Lossy
Delay relative to video        : -9 ms
Stream size                    : 73.3 MiB (7%)
Title                          : GOPI SAHI
Language                       : Tamil
Default                        : No
Forced                         : No

Audio #4
ID                             : 5
Format                         : AAC LC
Format/Info                    : Advanced Audio Codec Low Complexity
Codec ID                       : A_AAC-2
Duration                       : 1 h 46 min
Bit rate                       : 96.0 kb/s
Channel(s)                     : 2 channels
Channel layout                 : L R
Sampling rate                  : 48.0 kHz
Frame rate                     : 46.875 FPS (1024 SPF)
Compression mode               : Lossy
Delay relative to video        : -9 ms
Stream size                    : 73.3 MiB (7%)
Title                          : GOPI SAHI
Language                       : Telugu
Default                        : No
Forced                         : No

Text #1
ID                             : 6
Format                         : PGS
Muxing mode                    : zlib
Codec ID                       : S_HDMV/PGS
Codec ID/Info                  : Picture based subtitle format used on BDs/HD-DVDs
Duration                       : 1 h 37 min
Bit rate                       : 10.4 kb/s
Count of elements              : 1024
Stream size                    : 7.27 MiB (1%)
Title                          : GOPI SAHI
Language                       : English
Default                        : Yes
Forced                         : No

Text #2
ID                             : 7
Format                         : PGS
Muxing mode                    : zlib
Codec ID                       : S_HDMV/PGS
Codec ID/Info                  : Picture based subtitle format used on BDs/HD-DVDs
Duration                       : 1 h 37 min
Bit rate                       : 10.4 kb/s
Count of elements              : 1024
Stream size                    : 7.27 MiB (1%)
Title                          : GOPI SAHI
Language                       : English
Default                        : No
Forced                         : No