Coach Carter 2005 x264 720p Esub BluRay Dual Audio English Hindi GOPI SAHI

Coach Carter (2005)


Controversy surrounds high school basketball coach Ken Carter after he benches his entire team for breaking their academic contract with him.
EN

Director:

Thomas Carter

7.3/10
123,511
Directed byThomas Carter
Produced byDavid Gale
Brian Robbins
Michael Tollin
Written byMark Schwahn
John Gatins
StarringSamuel L. Jackson
Rob Brown
Ashanti
Music byTrevor Rabin
CinematographySharone Meir
Edited byPeter Berger
Production
company
Distributed byParamount Pictures
Release date
  • January 14, 2005
Running time
136 minutes
CountryUnited States
LanguageEnglish
Budget$30 million[1]
Box office$76.7 million[1]

Coach Carter 2005 x264 720p Esub BluRay Dual Audio English Hindi GOPI SAHI

Format                         : Matroska
Format version                 : Version 4
File size                      : 1.05 GiB
Duration                       : 2 h 16 min
Overall bit rate               : 1 103 kb/s
Movie name                     : Coach Carter 2005 GOPI SAHI
Encoded date                   : UTC 2020-08-06 04:09:08

Video
ID                             : 1
Format                         : AVC
Format/Info                    : Advanced Video Codec
Format profile                 : [email protected]
Format settings                : CABAC / 5 Ref Frames
Format settings, CABAC         : Yes
Format settings, Reference fra : 5 frames
Codec ID                       : V_MPEG4/ISO/AVC
Duration                       : 2 h 16 min
Bit rate                       : 899 kb/s
Width                          : 1 280 pixels
Height                         : 538 pixels
Display aspect ratio           : 2.40:1
Frame rate mode                : Constant
Frame rate                     : 23.976 (24000/1001) FPS
Color space                    : YUV
Chroma subsampling             : 4:2:0
Bit depth                      : 8 bits
Scan type                      : Progressive
Bits/(Pixel*Frame)             : 0.054
Stream size                    : 876 MiB (81%)
Title                          : GOPI SAHI
Writing library                : x264 core 157 r2935 545de2f

Audio #1
ID                             : 2
Format                         : AAC LC
Format/Info                    : Advanced Audio Codec Low Complexity
Codec ID                       : A_AAC-2
Duration                       : 2 h 16 min
Bit rate                       : 96.0 kb/s
Channel(s)                     : 2 channels
Channel layout                 : L R
Sampling rate                  : 48.0 kHz
Frame rate                     : 46.875 FPS (1024 SPF)
Compression mode               : Lossy
Delay relative to video        : 1 s 29 ms
Stream size                    : 94.0 MiB (9%)
Title                          : GOPI SAHI
Language                       : Hindi
Default                        : Yes
Forced                         : No

Audio #2
ID                             : 3
Format                         : AAC LC
Format/Info                    : Advanced Audio Codec Low Complexity
Codec ID                       : A_AAC-2
Duration                       : 2 h 16 min
Bit rate                       : 96.0 kb/s
Channel(s)                     : 2 channels
Channel layout                 : L R
Sampling rate                  : 48.0 kHz
Frame rate                     : 46.875 FPS (1024 SPF)
Compression mode               : Lossy
Delay relative to video        : -21 ms
Stream size                    : 93.9 MiB (9%)
Title                          : GOPI SAHI
Language                       : English
Default                        : No
Forced                         : No

Text
ID                             : 4
Format                         : PGS
Muxing mode                    : zlib
Codec ID                       : S_HDMV/PGS
Codec ID/Info                  : Picture based subtitle format used on BDs/HD-DVDs
Duration                       : 2 h 8 min
Bit rate                       : 44.3 kb/s
Count of elements              : 3464
Stream size                    : 40.8 MiB (4%)
Title                          : GOPI SAHI
Language                       : English
Default                        : Yes
Forced                         : No