Blitz 2011 x264 720p Esub BluRay Dual Audio English Hindi GOPI SAHI

Blitz (2011)


A tough cop is dispatched to take down a serial killer who has been targeting police officers.
EN

Director:

Elliott Lester

Writers:

Nathan Parker (screenplay), Ken Bruen (novel)

6.2/10
80,523

Directed byElliott Lester
Produced byBrad Wyman
Steven Chasman
Samuel Hadida
Zygi Kamasa
Written byNathan Parker
Based onBlitz by Ken Bruen
Starring
Music byIlan Eshkeri
CinematographyRob Hardy
Edited byJohn Gilbert
Production
company
Davis Films
Lipsync Productions
Distributed byLionsgate UK (U.K.)
Millennium Entertainment (U.S./International)
Release date
  • 20 May 2011
Running time
97 minutes
CountryUnited Kingdom
LanguageEnglish
Box office$15.8 million[1]


Blitz 2011 x264 720p Esub BluRay Dual Audio English Hindi GOPI SAHI

Format                         : Matroska
Format version                 : Version 4
File size                      : 784 MiB
Duration                       : 1 h 37 min
Overall bit rate               : 1 123 kb/s
Movie name                     : Blitz 2011 GOPI SAHI
Encoded date                   : UTC 2020-08-23 07:07:33

Video
ID                             : 1
Format                         : AVC
Format/Info                    : Advanced Video Codec
Format profile                 : [email protected]
Format settings                : CABAC / 5 Ref Frames
Format settings, CABAC         : Yes
Format settings, Reference fra : 5 frames
Codec ID                       : V_MPEG4/ISO/AVC
Duration                       : 1 h 37 min
Bit rate                       : 899 kb/s
Width                          : 1 280 pixels
Height                         : 544 pixels
Display aspect ratio           : 2.35:1
Frame rate mode                : Constant
Frame rate                     : 23.976 (24000/1001) FPS
Color space                    : YUV
Chroma subsampling             : 4:2:0
Bit depth                      : 8 bits
Scan type                      : Progressive
Bits/(Pixel*Frame)             : 0.054
Stream size                    : 628 MiB (80%)
Title                          : GOPI SAHI
Writing library                : x264 core 157 r2935 545de2f

Audio #1
ID                             : 2
Format                         : AAC LC
Format/Info                    : Advanced Audio Codec Low Complexity
Codec ID                       : A_AAC-2
Duration                       : 1 h 37 min
Bit rate                       : 96.0 kb/s
Channel(s)                     : 2 channels
Channel layout                 : L R
Sampling rate                  : 48.0 kHz
Frame rate                     : 46.875 FPS (1024 SPF)
Compression mode               : Lossy
Delay relative to video        : 5 ms
Stream size                    : 67.4 MiB (9%)
Title                          : GOPI SAHI
Language                       : Hindi
Default                        : Yes
Forced                         : No

Audio #2
ID                             : 3
Format                         : AAC LC
Format/Info                    : Advanced Audio Codec Low Complexity
Codec ID                       : A_AAC-2
Duration                       : 1 h 37 min
Bit rate                       : 96.0 kb/s
Channel(s)                     : 2 channels
Channel layout                 : L R
Sampling rate                  : 48.0 kHz
Frame rate                     : 46.875 FPS (1024 SPF)
Compression mode               : Lossy
Delay relative to video        : -21 ms
Stream size                    : 67.4 MiB (9%)
Title                          : GOPI SAHI
Language                       : English
Default                        : No
Forced                         : No

Text #1
ID                             : 4
Format                         : PGS
Muxing mode                    : zlib
Codec ID                       : S_HDMV/PGS
Codec ID/Info                  : Picture based subtitle format used on BDs/HD-DVDs
Duration                       : 1 h 30 min
Bit rate                       : 23.2 kb/s
Count of elements              : 2104
Stream size                    : 15.0 MiB (2%)
Title                          : GOPI SAHI
Language                       : English
Default                        : Yes
Forced                         : Yes

Text #2
ID                             : 5
Format                         : PGS
Muxing mode                    : zlib
Codec ID                       : S_HDMV/PGS
Codec ID/Info                  : Picture based subtitle format used on BDs/HD-DVDs
Duration                       : 1 h 31 min
Bit rate                       : 27.6 kb/s
Count of elements              : 2550
Stream size                    : 18.1 MiB (2%)
Title                          : GOPI SAHI
Language                       : English
Default                        : No
Forced                         : No

Menu
00:00:00.000                   : en:Chapter  1
00:08:44.315                   : en:Chapter  2
00:16:29.780                   : en:Chapter  3
00:23:39.960                   : en:Chapter  4
00:31:07.198                   : en:Chapter  5
00:40:13.869                   : en:Chapter  6
00:48:02.713                   : en:Chapter  7
00:55:24.612                   : en:Chapter  8
01:03:44.570                   : en:Chapter  9
01:11:32.830                   : en:Chapter 10
01:20:07.969                   : en:Chapter 11
01:32:12.527                   : en:Chapter 12