U-571 2000 x264 720p Esub BluRay Dual Audio English Hindi GOPI SAHI

U-571 (2000)

PG-13 | | Action, War | 21 April 2000 (USA) 
 
German submarine is boarded by disguised American submariners trying to capture their Enigma cipher machine.

Director:

Jonathan Mostow

Writers:

Jonathan Mostow (story), Jonathan Mostow (screenplay) | 2 more credits »

6.6/10
74,971

Directed byJonathan Mostow
Produced byDino De Laurentiis
Martha De Laurentiis
Screenplay byJonathan Mostow
Sam Montgomery
David Ayer
Story byJonathan Mostow
Starring
Music byRichard Marvin
CinematographyOliver Wood
Edited byWayne Wahrman
Production
company
Distributed byUniversal Pictures
Release date
  • April 21, 2000
Running time
116 minutes
CountryUnited States
France
LanguageEnglish
German
Budget$62 million
Box office$127 million


Format                         : Matroska
Format version                 : Version 4 / Version 2
File size                      : 911 MiB
Duration                       : 1 h 56 min
Overall bit rate               : 1 095 kb/s
Movie name                     : U-571 2000 GOPI SAHI
Encoded date                   : UTC 2020-06-15 13:37:14

Video
ID                             : 1
Format                         : AVC
Format/Info                    : Advanced Video Codec
Format profile                 : [email protected]
Format settings, CABAC         : Yes
Format settings, RefFrames     : 5 frames
Codec ID                       : V_MPEG4/ISO/AVC
Duration                       : 1 h 56 min
Bit rate                       : 899 kb/s
Width                          : 1 280 pixels
Height                         : 720 pixels
Display aspect ratio           : 16:9
Frame rate mode                : Constant
Frame rate                     : 23.976 (24000/1001) FPS
Color space                    : YUV
Chroma subsampling             : 4:2:0
Bit depth                      : 8 bits
Scan type                      : Progressive
Bits/(Pixel*Frame)             : 0.041
Stream size                    : 746 MiB (82%)
Title                          : GOPI SAHI
Writing library                : x264 core 157 r2935 545de2f

Audio #1
ID                             : 2
Format                         : AAC
Format/Info                    : Advanced Audio Codec
Format profile                 : LC
Codec ID                       : A_AAC
Duration                       : 1 h 56 min
Bit rate                       : 96.0 kb/s
Channel(s)                     : 2 channels
Channel positions              : Front: L R
Sampling rate                  : 48.0 kHz
Frame rate                     : 46.875 FPS (1024 SPF)
Compression mode               : Lossy
Delay relative to video        : -13 ms
Stream size                    : 80.3 MiB (9%)
Title                          : GOPI SAHI
Language                       : Hindi
Default                        : Yes
Forced                         : No

Audio #2
ID                             : 3
Format                         : AAC
Format/Info                    : Advanced Audio Codec
Format profile                 : LC
Codec ID                       : A_AAC
Duration                       : 1 h 56 min
Bit rate                       : 96.0 kb/s
Channel(s)                     : 2 channels
Channel positions              : Front: L R
Sampling rate                  : 48.0 kHz
Frame rate                     : 46.875 FPS (1024 SPF)
Compression mode               : Lossy
Delay relative to video        : -21 ms
Stream size                    : 80.4 MiB (9%)
Title                          : GOPI SAHI
Language                       : English
Default                        : No
Forced                         : No

Text
ID                             : 4
Format                         : PGS
Muxing mode                    : zlib
Codec ID                       : S_HDMV/PGS
Codec ID/Info                  : Picture based subtitle format used on BDs/HD-DVDs
Duration                       : 1 h 48 min
Bit rate                       : 3 397 b/s
Count of elements              : 224
Stream size                    : 2.65 MiB (0%)
Title                          : GOPI SAHI
Language                       : English
Default                        : No
Forced                         : Yes

Menu
00:00:00.000                   : :Dead in the Water
00:08:42.731                   : :The Lost Command
00:12:59.195                   : :A Special Op
00:15:57.248                   : :The Trojan Horse
00:29:45.075                   : :To Be a Captain
00:33:15.827                   : :Battle Stations
00:36:03.620                   : :The Boarding Party
00:39:55.018                   : :Siege
00:46:49.640                   : :The Floating Target
00:56:29.887                   : :Survivors
00:58:55.949                   : :Heading for England
01:03:03.488                   : :A Real Sea Captain
01:06:36.284                   : :The Battle Below
01:10:02.156                   : :Face-to-Face
01:16:46.519                   : :Depth-Charged
01:21:31.637                   : :160 Meters
01:29:38.039                   : :200 Meters
01:35:31.643                   : :Trigger's Job
01:41:44.557                   : :Fire or Die!
01:48:31.964                   : :Epilogue/End Credits