Thor 2011 x264 720p Esub BluRay Dual Audio English Hindi GOPI SAHI

Thor (2011)

PG-13 | | Action, Adventure, Fantasy | 6 May 2011 (USA)
The powerful but arrogant god Thor is cast out of Asgard to live amongst humans in Midgard (Earth), where he soon becomes one of their finest defenders.

Director:

Kenneth Branagh

Writers:

Ashley Miller (screenplay) (as Ashley Edward Miller), Zack Stentz (screenplay) | 6 more credits »
7.0/10




Directed byKenneth Branagh
Produced byKevin Feige
Screenplay by
Story by
Based on
Starring
Music byPatrick Doyle
CinematographyHaris Zambarloukos[1]
Edited byPaul Rubell[1]
Production
company
Distributed byParamount Pictures[N 1]
Release date
  • April 17, 2011 (Sydney)
  • May 6, 2011 (United States)
Running time
114 minutes[5]
CountryUnited States
LanguageEnglish
Budget$150 million[6]
Box office$449.3 million[7]



Format                         : Matroska
Format version                 : Version 4 / Version 2
File size                      : 899 MiB
Duration                       : 1 h 54 min
Overall bit rate               : 1 094 kb/s
Movie name                     : Thor 2011 GOPI SAHI
Encoded date                   : UTC 2020-06-10 22:00:52

Video
ID                             : 1
Format                         : AVC
Format/Info                    : Advanced Video Codec
Format profile                 : [email protected]
Format settings, CABAC         : Yes
Format settings, RefFrames     : 5 frames
Codec ID                       : V_MPEG4/ISO/AVC
Duration                       : 1 h 54 min
Bit rate                       : 899 kb/s
Width                          : 1 280 pixels
Height                         : 544 pixels
Display aspect ratio           : 2.35:1
Frame rate mode                : Constant
Frame rate                     : 23.976 (24000/1001) FPS
Color space                    : YUV
Chroma subsampling             : 4:2:0
Bit depth                      : 8 bits
Scan type                      : Progressive
Bits/(Pixel*Frame)             : 0.054
Stream size                    : 738 MiB (82%)
Title                          : GOPI SAHI
Writing library                : x264 core 157 r2935 545de2f

Audio #1
ID                             : 2
Format                         : AAC
Format/Info                    : Advanced Audio Codec
Format profile                 : LC
Codec ID                       : A_AAC
Duration                       : 1 h 54 min
Bit rate                       : 96.0 kb/s
Channel(s)                     : 2 channels
Channel positions              : Front: L R
Sampling rate                  : 48.0 kHz
Frame rate                     : 46.875 FPS (1024 SPF)
Compression mode               : Lossy
Delay relative to video        : -21 ms
Stream size                    : 79.1 MiB (9%)
Title                          : GOPI SAHI
Language                       : Hindi
Default                        : Yes
Forced                         : No

Audio #2
ID                             : 3
Format                         : AAC
Format/Info                    : Advanced Audio Codec
Format profile                 : LC
Codec ID                       : A_AAC
Duration                       : 1 h 54 min
Bit rate                       : 96.0 kb/s
Channel(s)                     : 2 channels
Channel positions              : Front: L R
Sampling rate                  : 48.0 kHz
Frame rate                     : 46.875 FPS (1024 SPF)
Compression mode               : Lossy
Delay relative to video        : -21 ms
Stream size                    : 79.2 MiB (9%)
Title                          : GOPI SAHI
Language                       : English
Default                        : No
Forced                         : No

Text
ID                             : 4
Format                         : UTF-8
Codec ID                       : S_TEXT/UTF8
Codec ID/Info                  : UTF-8 Plain Text
Duration                       : 1 h 53 min
Bit rate                       : 40 b/s
Count of elements              : 1096
Stream size                    : 33.5 KiB (0%)
Title                          : GOPI SAHI
Language                       : English
Default                        : No
Forced                         : No