The Invisible Man 2020 x264 720p Esub BluRay Dual Audio English Hindi GOPI SAHI

The Invisible Man (2020)

 
When Cecilia's abusive ex takes his own life and leaves her his fortune, she suspects his death was a hoax. As a series of coincidences turn lethal, Cecilia works to prove that she is being hunted by someone nobody can see.

Director:

Leigh Whannell

Writers:

Leigh Whannell (screenplay), Leigh Whannell (screen story)

7.1/10
109,166

Directed byLeigh Whannell
Produced by
Written byLeigh Whannell
Based onCharacters and concepts created by H. G. Wells for The Invisible Man
Starring
Music byBenjamin Wallfisch
CinematographyStefan Duscio
Edited byAndy Canny
Production
company
Distributed byUniversal Pictures
Release date
  • February 27, 2020 (Australia)
  • February 28, 2020 (United States)
Running time
124 minutes
Country
  • United States
  • Australia
LanguageEnglish
Budget$7 million[1]
Box office$129.4 million[2][3]

Format                         : Matroska
Format version                 : Version 4 / Version 2
File size                      : 979 MiB
Duration                       : 2 h 4 min
Overall bit rate               : 1 101 kb/s
Movie name                     : The Invisible Man 2020 GOPI SAHI
Encoded date                   : UTC 2020-06-21 01:46:31

Video
ID                             : 1
Format                         : AVC
Format/Info                    : Advanced Video Codec
Format profile                 : [email protected]
Format settings, CABAC         : Yes
Format settings, RefFrames     : 5 frames
Codec ID                       : V_MPEG4/ISO/AVC
Duration                       : 2 h 4 min
Bit rate                       : 899 kb/s
Width                          : 1 280 pixels
Height                         : 534 pixels
Display aspect ratio           : 2.40:1
Frame rate mode                : Constant
Frame rate                     : 23.976 (24000/1001) FPS
Color space                    : YUV
Chroma subsampling             : 4:2:0
Bit depth                      : 8 bits
Scan type                      : Progressive
Bits/(Pixel*Frame)             : 0.055
Stream size                    : 799 MiB (82%)
Title                          : GOPI SAHI
Writing library                : x264 core 157 r2935 545de2f

Audio #1
ID                             : 2
Format                         : AAC
Format/Info                    : Advanced Audio Codec
Format profile                 : LC
Codec ID                       : A_AAC
Duration                       : 2 h 4 min
Bit rate                       : 96.0 kb/s
Channel(s)                     : 2 channels
Channel positions              : Front: L R
Sampling rate                  : 48.0 kHz
Frame rate                     : 46.875 FPS (1024 SPF)
Compression mode               : Lossy
Delay relative to video        : -21 ms
Stream size                    : 85.8 MiB (9%)
Title                          : GOPI SAHI
Language                       : Hindi
Default                        : Yes
Forced                         : No

Audio #2
ID                             : 3
Format                         : AAC
Format/Info                    : Advanced Audio Codec
Format profile                 : LC
Codec ID                       : A_AAC
Duration                       : 2 h 4 min
Bit rate                       : 96.0 kb/s
Channel(s)                     : 2 channels
Channel positions              : Front: L R
Sampling rate                  : 48.0 kHz
Frame rate                     : 46.875 FPS (1024 SPF)
Compression mode               : Lossy
Delay relative to video        : -21 ms
Stream size                    : 85.8 MiB (9%)
Title                          : GOPI SAHI
Language                       : English
Default                        : No
Forced                         : No

Text
ID                             : 4
Format                         : PGS
Muxing mode                    : zlib
Codec ID                       : S_HDMV/PGS
Codec ID/Info                  : Picture based subtitle format used on BDs/HD-DVDs
Duration                       : 1 h 50 min
Bit rate                       : 24.9 kb/s
Count of elements              : 2096
Stream size                    : 19.6 MiB (2%)
Title                          : GOPI SAHI
Language                       : English
Default                        : Yes
Forced                         : Yes

Menu
00:00:00.000                   : :Chapter 1
00:11:05.915                   : :Chapter 2
00:16:12.763                   : :Chapter 3
00:19:16.322                   : :Chapter 4
00:25:27.651                   : :Chapter 5
00:35:52.233                   : :Chapter 6
00:39:50.179                   : :Chapter 7
00:46:35.501                   : :Chapter 8
00:52:41.867                   : :Chapter 9
01:01:22.053                   : :Chapter 10
01:08:59.802                   : :Chapter 11
01:14:49.735                   : :Chapter 12
01:19:23.926                   : :Chapter 13
01:24:46.540                   : :Chapter 14
01:30:25.337                   : :Chapter 15
01:35:24.928                   : :Chapter 16
01:39:33.509                   : :Chapter 17
01:43:04.220                   : :Chapter 18
01:48:54.862                   : :Chapter 19
01:53:38.937                   : :Chapter 20