The Incredible Hulk 2008 x264 720p Esub BluRay Dual Audio English Hindi GOPI SAHI

The Incredible Hulk (2008)

PG-13 | | Action, Adventure, Sci-Fi | 13 June 2008 (USA)

Bruce Banner, a scientist on the run from the U.S. Government, must find a cure for the monster he turns into whenever he loses his temper.

Director:

Louis Leterrier

Writers:

Zak Penn (screenplay), Zak Penn (screen story) | 2 more credits »

6.7/10
423,000
Directed byLouis Leterrier
Produced by
Written byZak Penn
Based on
Starring
Music byCraig Armstrong
CinematographyPeter Menzies Jr.
Edited by
Production
company
Distributed byUniversal Pictures
Release date
Running time
112 minutes[1]
CountryUnited States
LanguageEnglish
Budget$150 million[2]
Box office$264.8 million[3


Format                         : Matroska
Format version                 : Version 4
File size                      : 903 MiB
Duration                       : 1 h 52 min
Overall bit rate               : 1 125 kb/s
Movie name                     : The Incredible Hulk 2008 GOPI SAHI
Encoded date                   : UTC 2020-06-14 06:22:50

Video
ID                             : 1
Format                         : AVC
Format/Info                    : Advanced Video Codec
Format profile                 : [email protected]
Format settings                : CABAC / 5 Ref Frames
Format settings, CABAC         : Yes
Format settings, Reference fra : 5 frames
Codec ID                       : V_MPEG4/ISO/AVC
Duration                       : 1 h 52 min
Bit rate                       : 899 kb/s
Width                          : 1 280 pixels
Height                         : 544 pixels
Display aspect ratio           : 2.35:1
Frame rate mode                : Constant
Frame rate                     : 23.976 (24000/1001) FPS
Color space                    : YUV
Chroma subsampling             : 4:2:0
Bit depth                      : 8 bits
Scan type                      : Progressive
Bits/(Pixel*Frame)             : 0.054
Stream size                    : 721 MiB (80%)
Title                          : GOPI SAHI
Writing library                : x264 core 157 r2935 545de2f

Audio #1
ID                             : 2
Format                         : AAC LC
Format/Info                    : Advanced Audio Codec Low Complexity
Codec ID                       : A_AAC-2
Duration                       : 1 h 52 min
Bit rate                       : 96.0 kb/s
Channel(s)                     : 2 channels
Channel layout                 : L R
Sampling rate                  : 48.0 kHz
Frame rate                     : 46.875 FPS (1024 SPF)
Compression mode               : Lossy
Delay relative to video        : 1 s 929 ms
Stream size                    : 77.4 MiB (9%)
Title                          : GOPI SAHI
Language                       : Hindi
Default                        : Yes
Forced                         : No

Audio #2
ID                             : 3
Format                         : AAC LC
Format/Info                    : Advanced Audio Codec Low Complexity
Codec ID                       : A_AAC-2
Duration                       : 1 h 52 min
Bit rate                       : 96.0 kb/s
Channel(s)                     : 2 channels
Channel layout                 : L R
Sampling rate                  : 48.0 kHz
Frame rate                     : 46.875 FPS (1024 SPF)
Compression mode               : Lossy
Delay relative to video        : -21 ms
Stream size                    : 77.4 MiB (9%)
Title                          : GOPI SAHI
Language                       : English
Default                        : No
Forced                         : No

Text #1
ID                             : 4
Format                         : PGS
Muxing mode                    : zlib
Codec ID                       : S_HDMV/PGS
Codec ID/Info                  : Picture based subtitle format used on BDs/HD-DVDs
Duration                       : 1 h 44 min
Bit rate                       : 22.0 kb/s
Count of elements              : 1667
Stream size                    : 16.4 MiB (2%)
Title                          : GOPI SAHI
Language                       : English
Default                        : Yes
Forced                         : No

Text #2
ID                             : 5
Format                         : PGS
Muxing mode                    : zlib
Codec ID                       : S_HDMV/PGS
Codec ID/Info                  : Picture based subtitle format used on BDs/HD-DVDs
Duration                       : 1 h 51 min
Bit rate                       : 82.5 kb/s
Count of elements              : 4226
Stream size                    : 65.7 MiB (7%)
Title                          : GOPI SAHI
Language                       : English
Default                        : No
Forced                         : No