The Grudge 2020 x264 720p Esub BluRay Dual Audio English Hindi Sadeemrdp GOPI SAHI


The Grudge (2020)


A house is cursed by a vengeful ghost that dooms those who enter it with a violent death.

Director:

Nicolas Pesce

Writers:

Nicolas Pesce (screenplay by), Nicolas Pesce (story by) | 2 more credits »

4.2/10
14,764

Directed byNicolas Pesce
Produced by
Screenplay by
  • Nicolas Pesce
Story by
  • Nicolas Pesce
  • Jeff Buhler
Based onJu-On: The Grudge
by Takashi Shimizu
Starring
Music byThe Newton Brothers[1]
CinematographyZachary Galler
Edited by
  • Gardner Gould
  • Ken Blackwell
Production
companies
Distributed bySony Pictures Releasing[3]
Release date
  • January 3, 2020 (United States)
Running time
94 minutes[4]
CountryUnited States
LanguageEnglish
Budget$10–14 million[5]
Box office$49.5 million[6][7]


Format                         : Matroska
Format version                 : Version 4
File size                      : 734 MiB
Duration                       : 1 h 33 min
Overall bit rate               : 1 094 kb/s
Movie name                     : The Grudge 2020 GOPI SAHI
Encoded date                   : UTC 2020-06-03 23:37:30

Video
ID                             : 1
Format                         : AVC
Format/Info                    : Advanced Video Codec
Format profile                 : [email protected]
Format settings                : CABAC / 5 Ref Frames
Format settings, CABAC         : Yes
Format settings, Reference fra : 5 frames
Codec ID                       : V_MPEG4/ISO/AVC
Duration                       : 1 h 33 min
Bit rate                       : 899 kb/s
Width                          : 1 280 pixels
Height                         : 534 pixels
Display aspect ratio           : 2.40:1
Frame rate mode                : Constant
Frame rate                     : 23.976 (24000/1001) FPS
Color space                    : YUV
Chroma subsampling             : 4:2:0
Bit depth                      : 8 bits
Scan type                      : Progressive
Bits/(Pixel*Frame)             : 0.055
Stream size                    : 603 MiB (82%)
Title                          : GOPI SAHI
Writing library                : x264 core 157 r2935 545de2f

Audio #1
ID                             : 2
Format                         : AAC LC
Format/Info                    : Advanced Audio Codec Low Complexity
Codec ID                       : A_AAC-2
Duration                       : 1 h 33 min
Bit rate                       : 96.0 kb/s
Channel(s)                     : 2 channels
Channel layout                 : L R
Sampling rate                  : 48.0 kHz
Frame rate                     : 46.875 FPS (1024 SPF)
Compression mode               : Lossy
Delay relative to video        : 879 ms
Stream size                    : 64.6 MiB (9%)
Title                          : GOPI SAHI
Language                       : Hindi
Default                        : Yes
Forced                         : No

Audio #2
ID                             : 3
Format                         : AAC LC
Format/Info                    : Advanced Audio Codec Low Complexity
Codec ID                       : A_AAC-2
Duration                       : 1 h 33 min
Bit rate                       : 96.0 kb/s
Channel(s)                     : 2 channels
Channel layout                 : L R
Sampling rate                  : 48.0 kHz
Frame rate                     : 46.875 FPS (1024 SPF)
Compression mode               : Lossy
Delay relative to video        : -21 ms
Stream size                    : 64.6 MiB (9%)
Title                          : GOPI SAHI
Language                       : English
Default                        : No
Forced                         : No

Text
ID                             : 4
Format                         : UTF-8
Codec ID                       : S_TEXT/UTF8
Codec ID/Info                  : UTF-8 Plain Text
Duration                       : 1 h 31 min
Bit rate                       : 30 b/s
Count of elements              : 750
Stream size                    : 20.8 KiB (0%)
Title                          : GOPI SAHI
Language                       : English
Default                        : Yes
Forced                         : No

Menu
00:00:00.000                   : :Chapter 1
00:03:23.620                   : :Chapter 2
00:09:48.129                   : :Chapter 3
00:15:35.518                   : :Chapter 4
00:20:08.207                   : :Chapter 5
00:27:51.628                   : :Chapter 6
00:32:21.940                   : :Chapter 7
00:40:53.451                   : :Chapter 8
00:46:06.222                   : :Chapter 9
00:54:23.802                   : :Chapter 10
00:57:21.146                   : :Chapter 11
01:02:53.520                   : :Chapter 12
01:09:04.891                   : :Chapter 13
01:13:50.051                   : :Chapter 14
01:20:38.459                   : :Chapter 15
01:25:53.065                   : :Chapter 16