Romeo Must Die 2000 x264 720p Esub BluRay Dual Audio English Hindi Sadeemrdp GOPI SAHI

Romeo Must Die (2000)


An avenging cop seeks out his brother's killer and falls for the daughter of a businessman who is involved in a money-deal with his father.

Director:

Andrzej Bartkowiak

Writers:

Mitchell Kapner (story), Eric Bernt (screenplay) | 1 more credit »
 
6.1/10
65,448

Directed byAndrzej Bartkowiak
Produced by
Screenplay by
Story byMitchell Kapner
Starring
Music by
CinematographyGlen MacPherson
Edited byDerek G. Brechin
Production
company
Distributed byWarner Bros. Pictures
Release date
  • March 22, 2000
Running time
115 minutes
CountryUnited States
Language
  • English
  • Chinese
Budget$25 million[1]
Box office$91 million[1]

Format                         : Matroska
Format version                 : Version 4
File size                      : 908 MiB
Duration                       : 1 h 55 min
Overall bit rate               : 1 103 kb/s
Movie name                     : Romeo Must Die 2000 GOPI SAHI


Video
ID                             : 1
Format                         : AVC
Format/Info                    : Advanced Video Codec
Format profile                 : [email protected]
Format settings                : CABAC / 5 Ref Frames
Format settings, CABAC         : Yes
Format settings, Reference fra : 5 frames
Codec ID                       : V_MPEG4/ISO/AVC
Duration                       : 1 h 55 min
Bit rate                       : 899 kb/s
Width                          : 1 280 pixels
Height                         : 534 pixels
Display aspect ratio           : 2.40:1
Frame rate mode                : Constant
Frame rate                     : 23.976 (24000/1001) FPS
Color space                    : YUV
Chroma subsampling             : 4:2:0
Bit depth                      : 8 bits
Scan type                      : Progressive
Bits/(Pixel*Frame)             : 0.055
Stream size                    : 739 MiB (81%)
Title                          : GOPI SAHI
Writing library                : x264 core 157 r2935 545de2f

Audio #1
ID                             : 2
Format                         : AAC LC
Format/Info                    : Advanced Audio Codec Low Complexity
Codec ID                       : A_AAC-2
Duration                       : 1 h 55 min
Bit rate                       : 96.0 kb/s
Channel(s)                     : 2 channels
Channel layout                 : L R
Sampling rate                  : 48.0 kHz
Frame rate                     : 46.875 FPS (1024 SPF)
Compression mode               : Lossy
Delay relative to video        : -21 ms
Stream size                    : 79.3 MiB (9%)
Title                          : GOPI SAHI
Language                       : Hindi
Default                        : Yes
Forced                         : No

Audio #2
ID                             : 3
Format                         : AAC LC
Format/Info                    : Advanced Audio Codec Low Complexity
Codec ID                       : A_AAC-2
Duration                       : 1 h 55 min
Bit rate                       : 96.0 kb/s
Channel(s)                     : 2 channels
Channel layout                 : L R
Sampling rate                  : 48.0 kHz
Frame rate                     : 46.875 FPS (1024 SPF)
Compression mode               : Lossy
Delay relative to video        : -21 ms
Stream size                    : 79.4 MiB (9%)
Title                          : GOPI SAHI
Language                       : English
Default                        : No
Forced                         : No

Text
ID                             : 4
Format                         : PGS
Muxing mode                    : zlib
Codec ID                       : S_HDMV/PGS
Codec ID/Info                  : Picture based subtitle format used on BDs/HD-DVDs
Duration                       : 1 h 54 min
Bit rate                       : 21.1 kb/s
Count of elements              : 2184
Stream size                    : 17.3 MiB (2%)
Title                          : GOPI SAHI
Language                       : English
Default                        : Yes
Forced                         : Yes

Menu
00:00:00.000                   : :Chapter 1
00:02:38.367                   : :Chapter 2
00:07:15.685                   : :Chapter 3
00:11:07.333                   : :Chapter 4
00:13:12.625                   : :Chapter 5
00:15:02.151                   : :Chapter 6
00:16:57.808                   : :Chapter 7
00:18:46.375                   : :Chapter 8
00:21:11.187                   : :Chapter 9
00:22:36.564                   : :Chapter 10
00:27:25.352                   : :Chapter 11
00:29:09.414                   : :Chapter 12
00:30:58.648                   : :Chapter 13
00:33:52.447                   : :Chapter 14
00:36:12.295                   : :Chapter 15
00:39:40.378                   : :Chapter 16
00:42:30.715                   : :Chapter 17
00:44:34.463                   : :Chapter 18
00:47:22.423                   : :Chapter 19
00:48:59.311                   : :Chapter 20
00:50:47.628                   : :Chapter 21
00:54:46.408                   : :Chapter 22
00:56:32.848                   : :Chapter 23
01:00:40.595                   : :Chapter 24
01:03:14.416                   : :Chapter 25
01:05:34.055                   : :Chapter 26
01:09:48.685                   : :Chapter 27
01:12:52.660                   : :Chapter 28
01:14:24.293                   : :Chapter 29
01:17:53.502                   : :Chapter 30
01:21:09.531                   : :Chapter 31
01:25:29.499                   : :Chapter 32
01:29:56.641                   : :Chapter 33
01:34:36.921                   : :Chapter 34
01:37:07.572                   : :Chapter 35
01:40:55.216                   : :Chapter 36
01:43:14.230                   : :Chapter 37
01:47:47.461                   : :Chapter 38
01:49:59.968                   : :Chapter 39