Rasbhari 2020 x264 720p Season-1 Ep01-08 GOPI SAHI


Nand is amongst the rush of men who pursue Shanu, the new English teacher in Meerut. Upon his discovering her supposed alter-ego, the sex-obsessed spirit of Rasbhari, their relationship ... See full summary »

1.9/10
140

Format                         : Matroska
Format version                 : Version 4 / Version 2
File size                      : 246 MiB
Duration                       : 37 min 28 s
Overall bit rate               : 919 kb/s
Encoded date                   : UTC 2020-06-25 00:07:14

Video
ID                             : 1
Format                         : AVC
Format/Info                    : Advanced Video Codec
Format profile                 : [email protected]
Format settings, CABAC         : Yes
Format settings, RefFrames     : 4 frames
Codec ID                       : V_MPEG4/ISO/AVC
Duration                       : 37 min 28 s
Bit rate                       : 840 kb/s
Width                          : 1 280 pixels
Height                         : 720 pixels
Display aspect ratio           : 16:9
Frame rate mode                : Constant
Frame rate                     : 24.000 FPS
Color space                    : YUV
Chroma subsampling             : 4:2:0
Bit depth                      : 8 bits
Scan type                      : Progressive
Bits/(Pixel*Frame)             : 0.038
Stream size                    : 221 MiB (90%)
Writing library                : x264 core 155 r2901 7d0ff22

Audio
ID                             : 2
Format                         : AAC
Format/Info                    : Advanced Audio Codec
Format profile                 : LC
Codec ID                       : A_AAC
Duration                       : 37 min 28 s
Bit rate                       : 93.6 kb/s
Channel(s)                     : 2 channels
Channel positions              : Front: L R
Sampling rate                  : 44.1 kHz
Frame rate                     : 43.066 FPS (1024 SPF)
Compression mode               : Lossy
Stream size                    : 25.1 MiB (10%)
Language                       : Hindi
Default                        : Yes
Forced                         : No

Text
ID                             : 3
Format                         : UTF-8
Codec ID                       : S_TEXT/UTF8
Codec ID/Info                  : UTF-8 Plain Text
Duration                       : 34 min 57 s
Bit rate                       : 68 b/s
Count of elements              : 523
Stream size                    : 17.5 KiB (0%)
Language                       : English
Default                        : No
Forced                         : No





TORRENT2

DWONLOAD
SPEED 300 MB SEC

MULTIUP

ANONFILES

BAYFILES

RECATY

INSTANT DWONLOAD
START IN 20 SEC

GOOGLE DRIVE

GOOGLE DRIVE FILE COPY

FIREBASE
(LINK DISABLE BY WEBSITE OWNER)

UPLOADFILES

MEDIAFIRE

ONLINE-DWONLOAD 720p EP01-EP08 LINKS