Race 2008 x264 720p Esub BluRay Hindi Sadeemrdp GOPI SAHI

Race (2008)

Not Rated | | Action, Crime, Drama | 21 March 2008 (India)

Destiny makes two brothers- Ranvir and Rajiv - enemies of each other. Everything is fair in love and war.

Directors:

Abbas Alibhai Burmawalla (as Abbas-Mastan), Mastan Alibhai Burmawalla (as Abbas-Mastan)

Writers:

Shiraz Ahmed (screenplay), Shiraz Ahmed (story) | 2 more credits »
6.7/10


Directed byAbbas-Mustan
Produced byRamesh S. Taurani
Kumar S. Taurani
Written byJitendra Parmar
Anurag Prapanna
(Dialogue)
Screenplay byShiraz Ahmed
Story byShiraz Ahmed
StarringAnil Kapoor
Saif Ali Khan
Akshaye Khanna
Bipasha Basu
Katrina Kaif
Sameera Reddy
Music bySongs:
Pritam
Background Score:
Salim-Sulaiman
CinematographyRavi Yadav
Edited byHussain A. Burmawala
Production
company
Distributed byUTV Motion Pictures
Release date
  • 21 March 2008
Running time
148 minutes
CountryIndia
LanguageHindi
Budget46 crore[1]
Box officeest.₹103.45 crore[2]

Format                         : Matroska
Format version                 : Version 4
File size                      : 1.09 GiB
Duration                       : 2 h 35 min
Overall bit rate               : 1 004 kb/s
Movie name                     : Race 2008 GOPI SAHI


Video
ID                             : 1
Format                         : AVC
Format/Info                    : Advanced Video Codec
Format profile                 : [email protected]
Format settings                : CABAC / 5 Ref Frames
Format settings, CABAC         : Yes
Format settings, Reference fra : 5 frames
Codec ID                       : V_MPEG4/ISO/AVC
Duration                       : 2 h 35 min
Bit rate                       : 899 kb/s
Width                          : 1 280 pixels
Height                         : 544 pixels
Display aspect ratio           : 2.35:1
Frame rate mode                : Constant
Frame rate                     : 23.976 (24000/1001) FPS
Color space                    : YUV
Chroma subsampling             : 4:2:0
Bit depth                      : 8 bits
Scan type                      : Progressive
Bits/(Pixel*Frame)             : 0.054
Stream size                    : 998 MiB (90%)
Title                          : GOPI SAHI
Writing library                : x264 core 157 r2935 545de2f

Audio
ID                             : 2
Format                         : AAC LC
Format/Info                    : Advanced Audio Codec Low Complexity
Codec ID                       : A_AAC-2
Duration                       : 2 h 35 min
Bit rate                       : 96.0 kb/s
Channel(s)                     : 2 channels
Channel layout                 : L R
Sampling rate                  : 48.0 kHz
Frame rate                     : 46.875 FPS (1024 SPF)
Compression mode               : Lossy
Delay relative to video        : -21 ms
Stream size                    : 104 MiB (9%)
Title                          : GOPI SAHI
Language                       : Hindi
Default                        : Yes
Forced                         : No

Text
ID                             : 3
Format                         : PGS
Muxing mode                    : zlib
Codec ID                       : S_HDMV/PGS
Codec ID/Info                  : Picture based subtitle format used on BDs/HD-DVDs
Duration                       : 2 h 25 min
Bit rate                       : 24.6 kb/s
Count of elements              : 3135
Stream size                    : 25.6 MiB (2%)
Title                          : GOPI SAHI
Language                       : English
Default                        : Yes
Forced                         : No

Menu
00:00:00.000                   : :Chapter 1
00:06:06.950                   : :Chapter 2
00:20:16.716                   : :Chapter 3
00:24:01.565                   : :Chapter 4
00:32:11.680                   : :Chapter 5
00:35:11.943                   : :Chapter 6
00:40:09.866                   : :Chapter 7
00:46:08.349                   : :Chapter 8
00:57:44.336                   : :Chapter 9
01:04:18.104                   : :Chapter 10
01:19:22.633                   : :Chapter 11
01:26:12.876                   : :Chapter 12
01:33:52.627                   : :Chapter 13
01:41:53.691                   : :Chapter 14
01:54:06.340                   : :Chapter 15
01:58:22.637                   : :Chapter 16
02:02:01.981                   : :Chapter 17
02:07:27.598                   : :Chapter 18
02:15:12.688                   : :Chapter 19
02:27:19.706                   : :Chapter 20