Moneyball 2011 x264 720p Esub BluRay Dual Audio English Hindi GOPI SAHI

Moneyball (2011)


Oakland A's general manager Billy Beane's successful attempt to assemble a baseball team on a lean budget by employing computer-generated analysis to acquire new players.

Director:

Bennett Miller

Writers:

Steven Zaillian (screenplay), Aaron Sorkin (screenplay) | 2 more credits »

Directed byBennett Miller
Produced by
Screenplay by
Story byStan Chervin
Based onMoneyball: The Art of Winning an Unfair Game
by Michael Lewis
Starring
Music byMychael Danna
CinematographyWally Pfister
Edited byChristopher Tellefsen
Production
company
Distributed bySony Pictures Releasing
Release date
  • September 9, 2011 (TIFF)
  • September 23, 2011 (United States)
Running time
133 minutes[1]
CountryUnited States
LanguageEnglish
Budget$50 million[2]
Box office$110.2 million[3]

Format                         : Matroska
Format version                 : Version 4 / Version 2
File size                      : 1.04 GiB
Duration                       : 2 h 13 min
Overall bit rate               : 1 121 kb/s
Movie name                     : Moneyball 2011 GOPI SAHI
Encoded date                   : UTC 2020-06-24 13:36:25

Video
ID                             : 1
Format                         : AVC
Format/Info                    : Advanced Video Codec
Format profile                 : [email protected]
Format settings, CABAC         : Yes
Format settings, RefFrames     : 5 frames
Codec ID                       : V_MPEG4/ISO/AVC
Duration                       : 2 h 13 min
Bit rate                       : 899 kb/s
Width                          : 1 280 pixels
Height                         : 694 pixels
Display aspect ratio           : 1.85:1
Frame rate mode                : Constant
Frame rate                     : 23.976 (24000/1001) FPS
Color space                    : YUV
Chroma subsampling             : 4:2:0
Bit depth                      : 8 bits
Scan type                      : Progressive
Bits/(Pixel*Frame)             : 0.042
Stream size                    : 849 MiB (79%)
Title                          : GOPI SAHI
Writing library                : x264 core 157 r2935 545de2f

Audio #1
ID                             : 2
Format                         : AAC
Format/Info                    : Advanced Audio Codec
Format profile                 : LC
Codec ID                       : A_AAC
Duration                       : 2 h 13 min
Bit rate                       : 96.0 kb/s
Channel(s)                     : 2 channels
Channel positions              : Front: L R
Sampling rate                  : 48.0 kHz
Frame rate                     : 46.875 FPS (1024 SPF)
Compression mode               : Lossy
Delay relative to video        : -21 ms
Stream size                    : 91.8 MiB (9%)
Title                          : GOPI SAHI
Language                       : Hindi
Default                        : Yes
Forced                         : No

Audio #2
ID                             : 3
Format                         : AAC
Format/Info                    : Advanced Audio Codec
Format profile                 : LC
Codec ID                       : A_AAC
Duration                       : 2 h 13 min
Bit rate                       : 96.0 kb/s
Channel(s)                     : 2 channels
Channel positions              : Front: L R
Sampling rate                  : 48.0 kHz
Frame rate                     : 46.875 FPS (1024 SPF)
Compression mode               : Lossy
Delay relative to video        : -21 ms
Stream size                    : 91.8 MiB (9%)
Title                          : GOPI SAHI
Language                       : English
Default                        : No
Forced                         : No

Text #1
ID                             : 4
Format                         : PGS
Muxing mode                    : zlib
Codec ID                       : S_HDMV/PGS
Codec ID/Info                  : Picture based subtitle format used on BDs/HD-DVDs
Duration                       : 2 h 6 min
Bit rate                       : 38.3 kb/s
Count of elements              : 3480
Stream size                    : 34.6 MiB (3%)
Title                          : GOPI SAHI
Language                       : Hindi
Default                        : Yes
Forced                         : No

Text #2
ID                             : 5
Format                         : PGS
Muxing mode                    : zlib
Codec ID                       : S_HDMV/PGS
Codec ID/Info                  : Picture based subtitle format used on BDs/HD-DVDs
Duration                       : 2 h 4 min
Bit rate                       : 41.0 kb/s
Count of elements              : 3400
Stream size                    : 36.5 MiB (3%)
Language                       : English
Default                        : No
Forced                         : No