It Chapter Two 2019 x264 720p Esub BluRay Dual Audio English Hindi Telugu Tamil GOPI SAHI

It Chapter Two (2019)

Twenty-seven years after their first encounter with the terrifying Pennywise, the Losers Club have grown up and moved away, until a devastating phone call brings them back.

Director:

Andy Muschietti

Writers:

Stephen King (based on the novel "It" by), Gary Dauberman (screenplay by)

6.6/10
180,998
Directed byAndy Muschietti
Produced by
Screenplay byGary Dauberman
Based onIt
by Stephen King
Starring
Music byBenjamin Wallfisch
CinematographyChecco Varese
Edited byJason Ballantine
Production
companies
Distributed byWarner Bros. Pictures
Release date
  • September 6, 2019 (United States)
Running time
169 minutes[1]
CountryUnited States
LanguageEnglish
Budget$79 million[2]
Box office$473.1 million[3


General
Unique ID                      : 23439682373268253041144413876383463234 (0x11A25190E19070647D78AB21B19D3742)
Complete name                  : M:\It Chapter Two 2019 GOPI SAHI.mkv
Format                         : Matroska
Format version                 : Version 4 / Version 2
File size                      : 1.54 GiB
Duration                       : 2 h 49 min
Overall bit rate               : 1 302 kb/s
Movie name                     : It Chapter Two 2019 GOPI SAHI
Encoded date                   : UTC 2020-06-18 05:04:25
Writing application            : mkvmerge v47.0.0 ('Black Flag') 64-bit
Writing library                : libebml v1.3.10 + libmatroska v1.5.2
Cover                          : Yes
Attachments                    : Cover.jpg

Video
ID                             : 1
Format                         : AVC
Format/Info                    : Advanced Video Codec
Format profile                 : [email protected]
Format settings, CABAC         : Yes
Format settings, RefFrames     : 5 frames
Codec ID                       : V_MPEG4/ISO/AVC
Duration                       : 2 h 49 min
Bit rate                       : 899 kb/s
Width                          : 1 280 pixels
Height                         : 536 pixels
Display aspect ratio           : 2.40:1
Frame rate mode                : Constant
Frame rate                     : 23.976 (24000/1001) FPS
Color space                    : YUV
Chroma subsampling             : 4:2:0
Bit depth                      : 8 bits
Scan type                      : Progressive
Bits/(Pixel*Frame)             : 0.055
Stream size                    : 1.06 GiB (69%)
Title                          : GOPI SAHI
Writing library                : x264 core 157 r2935 545de2f
Encoding settings              : cabac=1 / ref=5 / deblock=1:0:0 / analyse=0x3:0x133 / me=umh / subme=10 / psy=1 / psy_rd=1.00:0.00 / mixed_ref=1 / me_range=24 / chroma_me=1 / trellis=2 / 8x8dct=1 / cqm=0 / deadzone=21,11 / fast_pskip=1 / chroma_qp_offset=-2 / threads=17 / lookahead_threads=1 / sliced_threads=0 / nr=0 / decimate=1 / interlaced=0 / bluray_compat=0 / constrained_intra=0 / bframes=5 / b_pyramid=2 / b_adapt=2 / b_bias=0 / direct=3 / weightb=1 / open_gop=0 / weightp=2 / keyint=240 / keyint_min=24 / scenecut=40 / intra_refresh=0 / rc_lookahead=60 / rc=2pass / mbtree=1 / bitrate=899 / ratetol=1.0 / qcomp=0.60 / qpmin=0 / qpmax=69 / qpstep=4 / cplxblur=20.0 / qblur=0.5 / vbv_maxrate=62500 / vbv_bufsize=78125 / nal_hrd=none / filler=0 / ip_ratio=1.40 / aq=1:1.00
Language                       : English
Default                        : Yes
Forced                         : No
Color range                    : Limited
Color primaries                : BT.709
Transfer characteristics       : BT.709
Matrix coefficients            : BT.709

Audio #1
ID                             : 2
Format                         : AAC
Format/Info                    : Advanced Audio Codec
Format profile                 : LC
Codec ID                       : A_AAC
Duration                       : 2 h 49 min
Bit rate                       : 96.0 kb/s
Channel(s)                     : 2 channels
Channel positions              : Front: L R
Sampling rate                  : 48.0 kHz
Frame rate                     : 46.875 FPS (1024 SPF)
Compression mode               : Lossy
Delay relative to video        : -21 ms
Stream size                    : 117 MiB (7%)
Title                          : GOPI SAHI
Language                       : Hindi
Default                        : Yes
Forced                         : No

Audio #2
ID                             : 3
Format                         : AAC
Format/Info                    : Advanced Audio Codec
Format profile                 : LC
Codec ID                       : A_AAC
Duration                       : 2 h 49 min
Bit rate                       : 96.0 kb/s
Channel(s)                     : 2 channels
Channel positions              : Front: L R
Sampling rate                  : 48.0 kHz
Frame rate                     : 46.875 FPS (1024 SPF)
Compression mode               : Lossy
Delay relative to video        : -21 ms
Stream size                    : 117 MiB (7%)
Title                          : GOPI SAHI
Language                       : English
Default                        : No
Forced                         : No

Audio #3
ID                             : 4
Format                         : AAC
Format/Info                    : Advanced Audio Codec
Format profile                 : LC
Codec ID                       : A_AAC
Duration                       : 2 h 49 min
Bit rate                       : 96.0 kb/s
Channel(s)                     : 2 channels
Channel positions              : Front: L R
Sampling rate                  : 48.0 kHz
Frame rate                     : 46.875 FPS (1024 SPF)
Compression mode               : Lossy
Delay relative to video        : -21 ms
Stream size                    : 117 MiB (7%)
Title                          : GOPI SAHI
Language                       : Tamil
Default                        : No
Forced                         : No

Audio #4
ID                             : 5
Format                         : AAC
Format/Info                    : Advanced Audio Codec
Format profile                 : LC
Codec ID                       : A_AAC
Duration                       : 2 h 49 min
Bit rate                       : 96.0 kb/s
Channel(s)                     : 2 channels
Channel positions              : Front: L R
Sampling rate                  : 48.0 kHz
Frame rate                     : 46.875 FPS (1024 SPF)
Compression mode               : Lossy
Delay relative to video        : -21 ms
Stream size                    : 117 MiB (7%)
Title                          : GOPI SAHI
Language                       : Telugu
Default                        : No
Forced                         : No

Text #1
ID                             : 6
Format                         : PGS
Muxing mode                    : zlib
Codec ID                       : S_HDMV/PGS
Codec ID/Info                  : Picture based subtitle format used on BDs/HD-DVDs
Duration                       : 9 s 1 ms
Bit rate                       : 126 kb/s
Count of elements              : 52
Stream size                    : 138 KiB (0%)
Title                          : GOPI SAHI
Language                       : Italian
Default                        : Yes
Forced                         : Yes

Text #2
ID                             : 7
Format                         : PGS
Muxing mode                    : zlib
Codec ID                       : S_HDMV/PGS
Codec ID/Info                  : Picture based subtitle format used on BDs/HD-DVDs
Duration                       : 2 h 44 min
Bit rate                       : 36.4 kb/s
Count of elements              : 5486
Stream size                    : 42.8 MiB (3%)
Title                          : GOPI SAHI
Language                       : English
Default                        : No
Forced                         : No

Text #3
ID                             : 8
Format                         : PGS
Muxing mode                    : zlib
Codec ID                       : S_HDMV/PGS
Codec ID/Info                  : Picture based subtitle format used on BDs/HD-DVDs
Duration                       : 2 h 47 min
Bit rate                       : 434 b/s
Count of elements              : 114
Stream size                    : 532 KiB (0%)
Title                          : GOPI SAHI
Language                       : Hindi
Default                        : No
Forced                         : No

Text #4
ID                             : 9
Format                         : PGS
Muxing mode                    : zlib
Codec ID                       : S_HDMV/PGS
Codec ID/Info                  : Picture based subtitle format used on BDs/HD-DVDs
Duration                       : 2 h 47 min
Bit rate                       : 593 b/s
Count of elements              : 114
Stream size                    : 727 KiB (0%)
Title                          : GOPI SAHI
Language                       : Tamil
Default                        : No
Forced                         : No

Text #5
ID                             : 10
Format                         : PGS
Muxing mode                    : zlib
Codec ID                       : S_HDMV/PGS
Codec ID/Info                  : Picture based subtitle format used on BDs/HD-DVDs
Duration                       : 2 h 47 min
Bit rate                       : 461 b/s
Count of elements              : 106
Stream size                    : 565 KiB (0%)
Title                          : GOPI SAHI
Language                       : Telugu
Default                        : No
Forced                         : No

Menu
00:00:00.000                   : :Chapter 1
00:09:10.341                   : :Chapter 2
00:19:06.395                   : :Chapter 3
00:27:00.744                   : :Chapter 4
00:37:51.227                   : :Chapter 5
00:46:20.027                   : :Chapter 6
00:55:46.802                   : :Chapter 7
01:05:36.474                   : :Chapter 8
01:17:19.135                   : :Chapter 9
01:29:21.565                   : :Chapter 10
01:41:02.974                   : :Chapter 11
01:49:11.336                   : :Chapter 12
01:59:33.875                   : :Chapter 13
02:05:31.774                   : :Chapter 14
02:14:25.933                   : :Chapter 15
02:22:43.889                   : :Chapter 16
02:32:57.168                   : :Chapter 17
02:42:15.643                   : :Chapter 18
02:44:52.549                   : :Chapter 19
















USAUPLOAD