It 2017 It Chapter Two 2019 x264 720p Esub BluRay Dual Audio English Hindi Telugu Tamil GOPI SAHI

It (2017)


In the summer of 1989, a group of bullied kids band together to destroy a shape-shifting monster, which disguises itself as a clown and preys on the children of Derry, their small Maine town.

Director:

Andy Muschietti

Writers:

Chase Palmer (screenplay by), Cary Joji Fukunaga (screenplay by) (as Cary Fukunaga) | 2 more credits »

7.3/10
436,093

Directed byAndy Muschietti
Produced by
Screenplay by
Based onIt
by Stephen King
Starring
Music byBenjamin Wallfisch
CinematographyChung Chung-hoon
Edited byJason Ballantine
Production
companies
Distributed byWarner Bros. Pictures
Release date
Running time
135 minutes[1]
CountryCanada
United States
LanguageEnglish
Budget$35 million[2][3]
Box office$701.8 million[4]

Format                         : Matroska
Format version                 : Version 4 / Version 2
File size                      : 1.22 GiB
Duration                       : 2 h 14 min
Overall bit rate               : 1 300 kb/s
Movie name                     : It 2017 GOPI SAHI 1
Encoded date                   : UTC 2020-06-18 01:58:48

Video
ID                             : 1
Format                         : AVC
Format/Info                    : Advanced Video Codec
Format profile                 : [email protected]
Format settings, CABAC         : Yes
Format settings, RefFrames     : 5 frames
Codec ID                       : V_MPEG4/ISO/AVC
Duration                       : 2 h 14 min
Bit rate                       : 899 kb/s
Width                          : 1 280 pixels
Height                         : 534 pixels
Display aspect ratio           : 2.40:1
Frame rate mode                : Constant
Frame rate                     : 23.976 (24000/1001) FPS
Color space                    : YUV
Chroma subsampling             : 4:2:0
Bit depth                      : 8 bits
Scan type                      : Progressive
Bits/(Pixel*Frame)             : 0.055
Stream size                    : 866 MiB (69%)
Title                          : GOPI SAHI
Writing library                : x264 core 157 r2935 545de2f

Audio #1
ID                             : 2
Format                         : AAC
Format/Info                    : Advanced Audio Codec
Format profile                 : LC
Codec ID                       : A_AAC
Duration                       : 2 h 14 min
Bit rate                       : 96.0 kb/s
Channel(s)                     : 2 channels
Channel positions              : Front: L R
Sampling rate                  : 48.0 kHz
Frame rate                     : 46.875 FPS (1024 SPF)
Compression mode               : Lossy
Stream size                    : 92.8 MiB (7%)
Title                          : GOPI SAHI
Language                       : Hindi
Default                        : Yes
Forced                         : No

Audio #2
ID                             : 3
Format                         : AAC
Format/Info                    : Advanced Audio Codec
Format profile                 : LC
Codec ID                       : A_AAC
Duration                       : 2 h 14 min
Bit rate                       : 96.0 kb/s
Channel(s)                     : 2 channels
Channel positions              : Front: L R
Sampling rate                  : 48.0 kHz
Frame rate                     : 46.875 FPS (1024 SPF)
Compression mode               : Lossy
Stream size                    : 92.7 MiB (7%)
Title                          : GOPI SAHI
Language                       : English
Default                        : No
Forced                         : No

Audio #3
ID                             : 4
Format                         : AAC
Format/Info                    : Advanced Audio Codec
Format profile                 : LC
Codec ID                       : A_AAC
Duration                       : 2 h 14 min
Bit rate                       : 96.0 kb/s
Channel(s)                     : 2 channels
Channel positions              : Front: L R
Sampling rate                  : 48.0 kHz
Frame rate                     : 46.875 FPS (1024 SPF)
Compression mode               : Lossy
Delay relative to video        : 1 s 13 ms
Stream size                    : 92.8 MiB (7%)
Title                          : GOPI SAHI
Language                       : Tamil
Default                        : No
Forced                         : No

Audio #4
ID                             : 5
Format                         : AAC
Format/Info                    : Advanced Audio Codec
Format profile                 : LC
Codec ID                       : A_AAC
Duration                       : 2 h 14 min
Bit rate                       : 96.0 kb/s
Channel(s)                     : 2 channels
Channel positions              : Front: L R
Sampling rate                  : 48.0 kHz
Frame rate                     : 46.875 FPS (1024 SPF)
Compression mode               : Lossy
Stream size                    : 92.9 MiB (7%)
Title                          : GOPI SAHI
Language                       : Telugu
Default                        : No
Forced                         : No

Text #1
ID                             : 6
Format                         : PGS
Muxing mode                    : zlib
Codec ID                       : S_HDMV/PGS
Codec ID/Info                  : Picture based subtitle format used on BDs/HD-DVDs
Duration                       : 9 s 1 ms
Bit rate                       : 126 kb/s
Count of elements              : 52
Stream size                    : 138 KiB (0%)
Title                          : GOPI SAHI
Language                       : Italian
Default                        : Yes
Forced                         : Yes

Text #2
ID                             : 7
Format                         : PGS
Muxing mode                    : zlib
Codec ID                       : S_HDMV/PGS
Codec ID/Info                  : Picture based subtitle format used on BDs/HD-DVDs
Duration                       : 2 h 14 min
Bit rate                       : 31.9 kb/s
Count of elements              : 3677
Stream size                    : 30.7 MiB (2%)
Title                          : GOPI SAHI
Language                       : English
Default                        : No
Forced                         : No

Text #3
ID                             : 8
Format                         : PGS
Muxing mode                    : zlib
Codec ID                       : S_HDMV/PGS
Codec ID/Info                  : Picture based subtitle format used on BDs/HD-DVDs
Duration                       : 2 h 12 min
Bit rate                       : 667 b/s
Count of elements              : 100
Stream size                    : 649 KiB (0%)
Title                          : GOPI SAHI
Language                       : Hindi
Default                        : No
Forced                         : No

Menu
00:00:00.000                   : :Chapter 1
00:09:23.646                   : :Chapter 2
00:18:31.861                   : :Chapter 3
00:28:26.163                   : :Chapter 4
00:38:36.981                   : :Chapter 5
00:48:19.438                   : :Chapter 6
00:59:30.817                   : :Chapter 7
01:08:52.795                   : :Chapter 8
01:16:58.823                   : :Chapter 9
01:26:53.041                   : :Chapter 10
01:38:15.431                   : :Chapter 11
01:48:41.056                   : :Chapter 12
02:04:08.107                   : :Chapter 13
02:09:05.821                   : :Chapter 14