Iron Man 2010 x264 720p Esub BluRay Dual Audio English Hindi GOPI SAHI

Iron Man 2 (2010)

PG-13 | | Action, Adventure, Sci-Fi | 7 May 2010 (USA) 

With the world now aware of his identity as Iron Man, Tony Stark must contend with both his declining health and a vengeful mad man with ties to his father's legacy.

Director:

Jon Favreau

Writers:

Justin Theroux (screenplay), Stan Lee (Marvel comic book) | 3 more credits »

7.0/10
699,644

Directed byJon Favreau
Produced byKevin Feige
Written byJustin Theroux
Based on
Starring
Music byJohn Debney
CinematographyMatthew Libatique
Edited by
Production
company
Distributed byParamount Pictures[N 1]
Release date
Running time
124 minutes[4]
CountryUnited States
LanguageEnglish
Budget$170–200 million[5][6]
Box office$623.9 million[6]
 


Format                         : Matroska
Format version                 : Version 4 / Version 2
File size                      : 988 MiB
Duration                       : 2 h 4 min
Overall bit rate               : 1 108 kb/s
Movie name                     : 2 Iron Man 2010 GOPI SAHI
Encoded date                   : UTC 2020-06-09 11:07:19

Video
ID                             : 1
Format                         : AVC
Format/Info                    : Advanced Video Codec
Format profile                 : [email protected]
Format settings, CABAC         : Yes
Format settings, RefFrames     : 5 frames
Codec ID                       : V_MPEG4/ISO/AVC
Duration                       : 2 h 4 min
Bit rate                       : 899 kb/s
Width                          : 1 280 pixels
Height                         : 544 pixels
Display aspect ratio           : 2.35:1
Frame rate mode                : Constant
Frame rate                     : 23.976 (24000/1001) FPS
Color space                    : YUV
Chroma subsampling             : 4:2:0
Bit depth                      : 8 bits
Scan type                      : Progressive
Bits/(Pixel*Frame)             : 0.054
Stream size                    : 801 MiB (81%)
Title                          : GOPI SAHI
Writing library                : x264 core 157 r2935 545de2f

Audio #1
ID                             : 2
Format                         : AAC
Format/Info                    : Advanced Audio Codec
Format profile                 : LC
Codec ID                       : A_AAC
Duration                       : 2 h 4 min
Bit rate                       : 96.0 kb/s
Channel(s)                     : 2 channels
Channel positions              : Front: L R
Sampling rate                  : 48.0 kHz
Frame rate                     : 46.875 FPS (1024 SPF)
Compression mode               : Lossy
Delay relative to video        : -21 ms
Stream size                    : 86.0 MiB (9%)
Title                          : GOPI SAHI
Language                       : Hindi
Default                        : Yes
Forced                         : No

Audio #2
ID                             : 3
Format                         : AAC
Format/Info                    : Advanced Audio Codec
Format profile                 : LC
Codec ID                       : A_AAC
Duration                       : 2 h 4 min
Bit rate                       : 96.0 kb/s
Channel(s)                     : 2 channels
Channel positions              : Front: L R
Sampling rate                  : 48.0 kHz
Frame rate                     : 46.875 FPS (1024 SPF)
Compression mode               : Lossy
Delay relative to video        : -21 ms
Stream size                    : 85.9 MiB (9%)
Title                          : GOPI SAHI
Language                       : English
Default                        : No
Forced                         : No

Text
ID                             : 4
Format                         : PGS
Muxing mode                    : zlib
Codec ID                       : S_HDMV/PGS
Codec ID/Info                  : Picture based subtitle format used on BDs/HD-DVDs
Duration                       : 2 h 4 min
Bit rate                       : 46.4 kb/s
Count of elements              : 3442
Stream size                    : 41.2 MiB (4%)
Title                          : GOPI SAHI
Language                       : English
Default                        : Yes
Forced                         : No