Iron Man 2008 X264 720P Esub Bluray Dual Audio English Hindi GOPI SAHI

Iron Man (2008)

PG-13 | | Action, Adventure, Sci-Fi | 2 May 2008 (USA)


After being held captive in an Afghan cave, billionaire engineer Tony Stark creates a unique weaponized suit of armor to fight evil.

Director:

Jon Favreau

Writers:

Mark Fergus (screenplay), Hawk Ostby (screenplay) | 6 more credits »
7.9/10
 


Directed byJon Favreau
Produced by
Screenplay by
Based on
Starring
Music byRamin Djawadi
CinematographyMatthew Libatique
Edited byDan Lebental
Production
company
Distributed byParamount Pictures[N 1]
Release date
  • April 14, 2008 (Sydney)
  • May 2, 2008 (United States)
Running time
126 minutes[4]
CountryUnited States
LanguageEnglish
Budget$140 million[5]
Box office$585.3 million[5]


Format                         : Matroska
Format version                 : Version 4 / Version 2
File size                      : 996 MiB
Duration                       : 2 h 6 min
Overall bit rate               : 1 099 kb/s
Movie name                     : 1 Iron Man 2008 GOPI SAHI
Encoded date                   : UTC 2020-06-09 11:06:03
Writing application            : mkvmerge v46.0.0 ('No Deeper Escape') 64-bit
Writing library                : libebml v1.3.10 + libmatroska v1.5.2

Video
ID                             : 1
Format                         : AVC
Format/Info                    : Advanced Video Codec
Format profile                 : [email protected]
Format settings, CABAC         : Yes
Format settings, RefFrames     : 5 frames
Codec ID                       : V_MPEG4/ISO/AVC
Duration                       : 2 h 6 min
Bit rate                       : 899 kb/s
Width                          : 1 280 pixels
Height                         : 534 pixels
Display aspect ratio           : 2.40:1
Frame rate mode                : Constant
Frame rate                     : 23.976 (24000/1001) FPS
Color space                    : YUV
Chroma subsampling             : 4:2:0
Bit depth                      : 8 bits
Scan type                      : Progressive
Bits/(Pixel*Frame)             : 0.055
Stream size                    : 810 MiB (81%)
Title                          : GOPI SAHI
Writing library                : x264 core 157 r2935 545de2f

Audio #1
ID                             : 2
Format                         : AAC
Format/Info                    : Advanced Audio Codec
Format profile                 : LC
Codec ID                       : A_AAC
Duration                       : 2 h 6 min
Bit rate                       : 96.0 kb/s
Channel(s)                     : 2 channels
Channel positions              : Front: L R
Sampling rate                  : 48.0 kHz
Frame rate                     : 46.875 FPS (1024 SPF)
Compression mode               : Lossy
Delay relative to video        : 2 s 479 ms
Stream size                    : 86.9 MiB (9%)
Title                          : GOPI SAHI
Language                       : Hindi
Default                        : Yes
Forced                         : No

Audio #2
ID                             : 3
Format                         : AAC
Format/Info                    : Advanced Audio Codec
Format profile                 : LC
Codec ID                       : A_AAC
Duration                       : 2 h 6 min
Bit rate                       : 96.0 kb/s
Channel(s)                     : 2 channels
Channel positions              : Front: L R
Sampling rate                  : 48.0 kHz
Frame rate                     : 46.875 FPS (1024 SPF)
Compression mode               : Lossy
Delay relative to video        : -21 ms
Stream size                    : 86.8 MiB (9%)
Title                          : GOPI SAHI
Language                       : English
Default                        : No
Forced                         : No

Text #1
ID                             : 4
Format                         : PGS
Muxing mode                    : zlib
Codec ID                       : S_HDMV/PGS
Codec ID/Info                  : Picture based subtitle format used on BDs/HD-DVDs
Duration                       : 2 h 4 min
Bit rate                       : 36.1 kb/s
Count of elements              : 2678
Stream size                    : 32.1 MiB (3%)
Title                          : GOPI SAHI
Language                       : English
Default                        : Yes
Forced                         : No

Text #2
ID                             : 5
Format                         : PGS
Muxing mode                    : zlib
Codec ID                       : S_HDMV/PGS
Codec ID/Info                  : Picture based subtitle format used on BDs/HD-DVDs
Duration                       : 1 h 3 min
Bit rate                       : 683 b/s
Count of elements              : 74
Stream size                    : 317 KiB (0%)
Title                          : GOPI SAHI
Language                       : English
Default                        : No
Forced                         : No