Howard the Duck 1986 x264 720p Esub BluRay Dual Audio English Hindi Sadeemrdp GOPI SAHI

Howard the Duck (1986)


A sarcastic humanoid duck is pulled from his homeworld to Earth where he must stop a hellish alien invasion with the help of a nerdy scientist and a cute struggling female rock singer who fancies him.

Director:

Willard Huyck

Writers:

Steve Gerber (based on the character created by), Willard Huyck | 1 more credit »

4.7/10




Directed byWillard Huyck
Produced byGloria Katz
Written by
  • Willard Huyck
  • Gloria Katz
Based on
Starring
Music by
CinematographyRichard H. Kline
Edited by
  • Michael Chandler
  • Sidney Wolinsky
Production
company
Distributed byUniversal Pictures
Release date
  • August 1, 1986
Running time
111 minutes[1]
CountryUnited States
LanguageEnglish
BudgetUS$37 million[2]
Box officeUS$38 million[2]

Format                         : Matroska
Format version                 : Version 4
File size                      : 871 MiB
Duration                       : 1 h 50 min
Overall bit rate               : 1 102 kb/s
Movie name                     : Howard the Duck 1986 GOPI SAHI
Encoded date                   : UTC 2020-06-05 09:25:32

Video
ID                             : 1
Format                         : AVC
Format/Info                    : Advanced Video Codec
Format profile                 : [email protected]
Format settings                : CABAC / 5 Ref Frames
Format settings, CABAC         : Yes
Format settings, Reference fra : 5 frames
Codec ID                       : V_MPEG4/ISO/AVC
Duration                       : 1 h 50 min
Bit rate                       : 899 kb/s
Width                          : 1 280 pixels
Height                         : 694 pixels
Display aspect ratio           : 1.85:1
Frame rate mode                : Constant
Frame rate                     : 23.976 (24000/1001) FPS
Color space                    : YUV
Chroma subsampling             : 4:2:0
Bit depth                      : 8 bits
Scan type                      : Progressive
Bits/(Pixel*Frame)             : 0.042
Stream size                    : 710 MiB (82%)
Title                          : GOPI SAHI
Writing library                : x264 core 157 r2935 545de2f

Audio #1
ID                             : 2
Format                         : AAC LC
Format/Info                    : Advanced Audio Codec Low Complexity
Codec ID                       : A_AAC-2
Duration                       : 1 h 50 min
Bit rate                       : 96.0 kb/s
Channel(s)                     : 2 channels
Channel layout                 : L R
Sampling rate                  : 48.0 kHz
Frame rate                     : 46.875 FPS (1024 SPF)
Compression mode               : Lossy
Delay relative to video        : -19 ms
Stream size                    : 76.2 MiB (9%)
Title                          : GOPI SAHI
Language                       : Hindi
Default                        : Yes
Forced                         : No

Audio #2
ID                             : 3
Format                         : AAC LC
Format/Info                    : Advanced Audio Codec Low Complexity
Codec ID                       : A_AAC-2
Duration                       : 1 h 50 min
Bit rate                       : 96.0 kb/s
Channel(s)                     : 2 channels
Channel layout                 : L R
Sampling rate                  : 48.0 kHz
Frame rate                     : 46.875 FPS (1024 SPF)
Compression mode               : Lossy
Delay relative to video        : -21 ms
Stream size                    : 76.3 MiB (9%)
Title                          : GOPI SAHI
Language                       : English
Default                        : No
Forced                         : No

Text
ID                             : 4
Format                         : PGS
Muxing mode                    : zlib
Codec ID                       : S_HDMV/PGS
Codec ID/Info                  : Picture based subtitle format used on BDs/HD-DVDs
Duration                       : 1 h 44 min
Bit rate                       : 34.4 kb/s
Count of elements              : 2424
Stream size                    : 25.7 MiB (3%)
Title                          : GOPI SAHI
Language                       : English
Default                        : Yes
Forced                         : No