Guardians Of The Galaxy 2014 x264 720p Esub BluRay Dual Audio English Hindi GOPI SAHI


Guardians of the Galaxy (2014)

A group of intergalactic criminals must pull together to stop a fanatical warrior with plans to purge the universe.

Director:

James Gunn

8.0/10
1,014,658

Directed byJames Gunn
Produced byKevin Feige
Written by
Based on
Starring
Music byTyler Bates
CinematographyBen Davis
Edited by
Production
company
Distributed byWalt Disney Studios
Motion Pictures
Release date
  • July 21, 2014 (Dolby Theatre)
  • August 1, 2014 (United States)
Running time
122 minutes[1]
CountryUnited States
LanguageEnglish
Budget
  • $232.3 million (gross)[2]
  • $195.9 million (net)[2]
Box office$772.8 million[3]

Format                         : Matroska
Format version                 : Version 4
File size                      : 956 MiB
Duration                       : 2 h 0 min
Overall bit rate               : 1 106 kb/s
Movie name                     : Guardians of the Galaxy 2014 GOPI SAHI
Encoded date                   : UTC 2020-06-13 14:57:17

Video
ID                             : 1
Format                         : AVC
Format/Info                    : Advanced Video Codec
Format profile                 : [email protected]
Format settings                : CABAC / 5 Ref Frames
Format settings, CABAC         : Yes
Format settings, Reference fra : 5 frames
Codec ID                       : V_MPEG4/ISO/AVC
Duration                       : 2 h 0 min
Bit rate                       : 899 kb/s
Width                          : 1 280 pixels
Height                         : 534 pixels
Display aspect ratio           : 2.40:1
Frame rate mode                : Constant
Frame rate                     : 23.976 (24000/1001) FPS
Color space                    : YUV
Chroma subsampling             : 4:2:0
Bit depth                      : 8 bits
Scan type                      : Progressive
Bits/(Pixel*Frame)             : 0.055
Stream size                    : 777 MiB (81%)
Title                          : GOPI SAHI
Writing library                : x264 core 157 r2935 545de2f

Audio #1
ID                             : 2
Format                         : AAC LC
Format/Info                    : Advanced Audio Codec Low Complexity
Codec ID                       : A_AAC-2
Duration                       : 2 h 0 min
Bit rate                       : 96.0 kb/s
Channel(s)                     : 2 channels
Channel layout                 : L R
Sampling rate                  : 48.0 kHz
Frame rate                     : 46.875 FPS (1024 SPF)
Compression mode               : Lossy
Delay relative to video        : -21 ms
Stream size                    : 83.3 MiB (9%)
Title                          : GOPI SAHI
Language                       : Hindi
Default                        : Yes
Forced                         : No

Audio #2
ID                             : 3
Format                         : AAC LC
Format/Info                    : Advanced Audio Codec Low Complexity
Codec ID                       : A_AAC-2
Duration                       : 2 h 0 min
Bit rate                       : 96.0 kb/s
Channel(s)                     : 2 channels
Channel layout                 : L R
Sampling rate                  : 48.0 kHz
Frame rate                     : 46.875 FPS (1024 SPF)
Compression mode               : Lossy
Delay relative to video        : -21 ms
Stream size                    : 83.3 MiB (9%)
Title                          : GOPI SAHI
Language                       : English
Default                        : No
Forced                         : No

Text
ID                             : 4
Format                         : PGS
Muxing mode                    : zlib
Codec ID                       : S_HDMV/PGS
Codec ID/Info                  : Picture based subtitle format used on BDs/HD-DVDs
Duration                       : 2 h 0 min
Bit rate                       : 35.1 kb/s
Count of elements              : 3334
Stream size                    : 30.2 MiB (3%)
Title                          : GOPI SAHI
Language                       : English
Default                        : Yes
Forced                         : No