First Reformed 2017 x264 720p Esub BluRay Dual Audio English Hindi GOPI SAHI

First Reformed (2017)

 
A minister of a small congregation in upstate New York grapples with mounting despair brought on by tragedy, worldly concerns and a tormented past.

Director:

Paul Schrader

Writer:

Paul Schrader
7.1/10
43,837

Directed byPaul Schrader
Produced by
Written byPaul Schrader
Starring
Music byLustmord
CinematographyAlexander Dynan
Edited byBenjamin Rodriguez Jr.
Production
company
  • Killer Films
  • Omeira Studio Partners
  • Fibonacci Films
  • Arclight Films
  • Big Indie Productions
Distributed byA24
Release date
  • August 31, 2017 (Venice)
  • May 18, 2018 (United States)
Running time
113 minutes
CountryUnited States
LanguageEnglish
Budget$3.5 million[1]
Box office$4 million[2]
Format                         : Matroska
Format version                 : Version 4 / Version 2
File size                      : 911 MiB
Duration                       : 1 h 53 min
Overall bit rate               : 1 125 kb/s
Movie name                     : First Reformed 2017 GOPI SAHI
Encoded date                   : UTC 2020-06-20 02:31:51

Video
ID                             : 1
Format                         : AVC
Format/Info                    : Advanced Video Codec
Format profile                 : [email protected]
Format settings, CABAC         : Yes
Format settings, RefFrames     : 5 frames
Codec ID                       : V_MPEG4/ISO/AVC
Duration                       : 1 h 53 min
Bit rate                       : 899 kb/s
Width                          : 1 280 pixels
Height                         : 958 pixels
Display aspect ratio           : 4:3
Frame rate mode                : Constant
Frame rate                     : 23.976 (24000/1001) FPS
Color space                    : YUV
Chroma subsampling             : 4:2:0
Bit depth                      : 8 bits
Scan type                      : Progressive
Bits/(Pixel*Frame)             : 0.031
Stream size                    : 728 MiB (80%)
Title                          : GOPI SAHI
Writing library                : x264 core 157 r2935 545de2f

Audio #1
ID                             : 2
Format                         : AAC
Format/Info                    : Advanced Audio Codec
Format profile                 : LC
Codec ID                       : A_AAC
Duration                       : 1 h 53 min
Bit rate                       : 96.0 kb/s
Channel(s)                     : 2 channels
Channel positions              : Front: L R
Sampling rate                  : 48.0 kHz
Frame rate                     : 46.875 FPS (1024 SPF)
Compression mode               : Lossy
Delay relative to video        : -17 ms
Stream size                    : 77.3 MiB (8%)
Title                          : GOPI SAHI
Language                       : Hindi
Default                        : Yes
Forced                         : No

Audio #2
ID                             : 3
Format                         : AAC
Format/Info                    : Advanced Audio Codec
Format profile                 : LC
Codec ID                       : A_AAC
Duration                       : 1 h 53 min
Bit rate                       : 96.0 kb/s
Channel(s)                     : 2 channels
Channel positions              : Front: L R
Sampling rate                  : 48.0 kHz
Frame rate                     : 46.875 FPS (1024 SPF)
Compression mode               : Lossy
Delay relative to video        : -21 ms
Stream size                    : 77.3 MiB (8%)
Title                          : GOPI SAHI
Language                       : English
Default                        : No
Forced                         : No

Text #1
ID                             : 4
Format                         : PGS
Muxing mode                    : zlib
Codec ID                       : S_HDMV/PGS
Codec ID/Info                  : Picture based subtitle format used on BDs/HD-DVDs
Duration                       : 1 h 50 min
Bit rate                       : 24.9 kb/s
Count of elements              : 2200
Stream size                    : 19.6 MiB (2%)
Title                          : GOPI SAHI
Language                       : Hindi


Text #2
ID                             : 5
Format                         : PGS
Muxing mode                    : zlib
Codec ID                       : S_HDMV/PGS
Codec ID/Info                  : Picture based subtitle format used on BDs/HD-DVDs
Duration                       : 1 h 51 min
Bit rate                       : 41.3 kb/s
Count of elements              : 2810
Stream size                    : 32.9 MiB (4%)
Title                          : GOPI SAHI
Language                       : English