Event Horizon 1997 x264 720p Esub BluRay Dual Audio English Hindi GOPI SAHI

Event Horizon (1997)


A rescue crew investigates a spaceship that disappeared into a black hole and has now returned...with someone or something new on-board.

Director:

Paul W.S. Anderson (as Paul Anderson)

Writer:

Philip Eisner

6.7/10
152,787

Directed byPaul W. S. Anderson
Produced by
Written byPhilip Eisner
Starring
Music by
CinematographyAdrian Biddle
Edited byMartin Hunter[1]
Production
companies
Distributed byParamount Pictures
Release date
  • 15 August 1997 (United States)
  • 22 August 1997 (United Kingdom)
Running time
96 minutes[2]
CountryUnited Kingdom[1]
United States[1]
LanguageEnglish
Budget$60 million[3]
Box office$26 million (US)[4]
 

Format                         : Matroska
Format version                 : Version 4
File size                      : 766 MiB
Duration                       : 1 h 36 min
Overall bit rate               : 1 111 kb/s
Movie name                     : Event Horizon 1997 GOPI SAHI
Encoded date                   : UTC 2020-06-22 01:54:10
Writing application            : mkvmerge v47.0.0 ('Black Flag') 64-bit

Video
ID                             : 1
Format                         : AVC
Format/Info                    : Advanced Video Codec
Format profile                 : [email protected]
Format settings                : CABAC / 5 Ref Frames
Format settings, CABAC         : Yes
Format settings, Reference fra : 5 frames
Codec ID                       : V_MPEG4/ISO/AVC
Duration                       : 1 h 35 min
Bit rate                       : 899 kb/s
Width                          : 1 280 pixels
Height                         : 546 pixels
Display aspect ratio           : 2.35:1
Frame rate mode                : Constant
Frame rate                     : 23.976 (24000/1001) FPS
Color space                    : YUV
Chroma subsampling             : 4:2:0
Bit depth                      : 8 bits
Scan type                      : Progressive
Bits/(Pixel*Frame)             : 0.054
Stream size                    : 617 MiB (81%)
Title                          : GOPI SAHI
Writing library                : x264 core 157 r2935 545de2f

Audio #1
ID                             : 2
Format                         : AAC LC
Format/Info                    : Advanced Audio Codec Low Complexity
Codec ID                       : A_AAC-2
Duration                       : 1 h 36 min
Bit rate                       : 96.0 kb/s
Channel(s)                     : 2 channels
Channel layout                 : L R
Sampling rate                  : 48.0 kHz
Frame rate                     : 46.875 FPS (1024 SPF)
Compression mode               : Lossy
Delay relative to video        : 1 s 29 ms
Stream size                    : 66.1 MiB (9%)
Title                          : GOPI SAHI
Language                       : Hindi
Default                        : Yes
Forced                         : No

Audio #2
ID                             : 3
Format                         : AAC LC
Format/Info                    : Advanced Audio Codec Low Complexity
Codec ID                       : A_AAC-2
Duration                       : 1 h 35 min
Bit rate                       : 96.0 kb/s
Channel(s)                     : 2 channels
Channel layout                 : L R
Sampling rate                  : 48.0 kHz
Frame rate                     : 46.875 FPS (1024 SPF)
Compression mode               : Lossy
Delay relative to video        : -21 ms
Stream size                    : 66.1 MiB (9%)
Title                          : GOPI SAHI
Language                       : English
Default                        : No
Forced                         : No

Text #1
ID                             : 4
Format                         : PGS
Muxing mode                    : zlib
Codec ID                       : S_HDMV/PGS
Codec ID/Info                  : Picture based subtitle format used on BDs/HD-DVDs
Duration                       : 1 h 29 min
Bit rate                       : 24.3 kb/s
Count of elements              : 2122
Stream size                    : 15.5 MiB (2%)
Title                          : GOPI SAHI
Language                       : Hindi
Default                        : Yes
Forced                         : No

Text #2
ID                             : 5
Format                         : PGS
Muxing mode                    : zlib
Codec ID                       : S_HDMV/PGS
Codec ID/Info                  : Picture based subtitle format used on BDs/HD-DVDs
Duration                       : 1 h 26 min
Bit rate                       : 34.0 kb/s
Count of elements              : 2044
Stream size                    : 21.2 MiB (3%)
Title                          : GOPI SAHI
Language                       : English
Default                        : No
Forced                         : No






HINDI 720P ONLINE