Equilibrium 2002 x264 720p Esub BluRay Dual Audio English Hindi Sadeemrdp GOPI SAHI

Equilibrium (2002)


In an oppressive future where all forms of feeling are illegal, a man in charge of enforcing the law rises to overthrow the system and state.

Director:

Kurt Wimmer

Writer:

Kurt Wimmer

7.4/10
306,036

Directed byKurt Wimmer
Produced by
Screenplay byKurt Wimmer
Starring
Music byKlaus Badelt
CinematographyDion Beebe
Edited by
Production
company
Distributed byMiramax Films
Release date
  • December 6, 2002
Running time
107 minutes[1]
CountryUnited States
LanguageEnglish
Budget$20 million[2]
Box office$5.3 million[3]

Format                         : Matroska
Format version                 : Version 4
File size                      : 836 MiB
Duration                       : 1 h 46 min
Overall bit rate               : 1 094 kb/s
Movie name                     : Equilibrium 2002 GOPI SAHI
Encoded date                   : UTC 2020-06-06 12:33:56

Video
ID                             : 1
Format                         : AVC
Format/Info                    : Advanced Video Codec
Format profile                 : [email protected]
Format settings                : CABAC / 5 Ref Frames
Format settings, CABAC         : Yes
Format settings, Reference fra : 5 frames
Codec ID                       : V_MPEG4/ISO/AVC
Duration                       : 1 h 46 min
Bit rate                       : 899 kb/s
Width                          : 1 280 pixels
Height                         : 720 pixels
Display aspect ratio           : 16:9
Frame rate mode                : Constant
Frame rate                     : 23.976 (24000/1001) FPS
Color space                    : YUV
Chroma subsampling             : 4:2:0
Bit depth                      : 8 bits
Scan type                      : Progressive
Bits/(Pixel*Frame)             : 0.041
Stream size                    : 687 MiB (82%)
Title                          : GOPI SAHI
Writing library                : x264 core 157 r2935 545de2f

Audio #1
ID                             : 2
Format                         : AAC LC
Format/Info                    : Advanced Audio Codec Low Complexity
Codec ID                       : A_AAC-2
Duration                       : 1 h 46 min
Bit rate                       : 96.0 kb/s
Channel(s)                     : 2 channels
Channel layout                 : L R
Sampling rate                  : 44.1 kHz
Frame rate                     : 43.066 FPS (1024 SPF)
Compression mode               : Lossy
Delay relative to video        : 7 ms
Stream size                    : 73.4 MiB (9%)
Title                          : GOPI SAHI
Language                       : Hindi
Default                        : Yes
Forced                         : No

Audio #2
ID                             : 3
Format                         : AAC LC
Format/Info                    : Advanced Audio Codec Low Complexity
Codec ID                       : A_AAC-2
Duration                       : 1 h 46 min
Bit rate                       : 96.0 kb/s
Channel(s)                     : 2 channels
Channel layout                 : L R
Sampling rate                  : 48.0 kHz
Frame rate                     : 46.875 FPS (1024 SPF)
Compression mode               : Lossy
Delay relative to video        : -21 ms
Stream size                    : 73.7 MiB (9%)
Title                          : GOPI SAHI
Language                       : English
Default                        : No
Forced                         : No

Text
ID                             : 4
Format                         : UTF-8
Codec ID                       : S_TEXT/UTF8
Codec ID/Info                  : UTF-8 Plain Text
Duration                       : 1 h 38 min
Bit rate                       : 34 b/s
Count of elements              : 724
Stream size                    : 24.8 KiB (0%)
Title                          : GOPI SAHI
Language                       : English
Default                        : Yes
Forced                         : No

Menu
00:00:00.000                   : :Man's Inhumanity to Man
00:07:29.950                   : :An Unfeeling Society
00:18:12.883                   : :The Prodigal Cleric
00:24:11.200                   : :A Heavy Cost
00:30:07.264                   : :A New Morning
00:36:50.166                   : :Existence and Purpose
00:46:06.555                   : :Awakening Emotions
00:53:40.509                   : :Signs of Remorse
01:02:20.445                   : :Doubting Father?
01:09:31.209                   : :A Big Mistake
01:11:40.671                   : :"He's A Sense Offender!"
01:19:00.236                   : :Questions for Mary
01:27:00.132                   : :Contacting the Resistance
01:34:23.158                   : :Incineration
01:40:17.386                   : :Nothing to Hide