Conan the Barbarian 2011 x264 720p Esub BluRay Dual Audio English Hindi GOPI SAHI

Conan the Barbarian (2011)


A vengeful barbarian warrior sets off to get his revenge on the evil warlord who attacked his village and murdered his father when he was a boy.

Director:

Marcus Nispel

5.2/10
93,667

Directed byMarcus Nispel
Produced byFredrik Malmberg
Avi Lerner
Boaz Davidson
Joe Gatta
George Furla
John Baldecchi
Les Weldon
Written byThomas Dean Donnelly
Joshua Oppenheimer

Sean Hood
Based on
Starring
Music byTyler Bates
CinematographyThomas Kloss
Edited byKen Blackwell
Production
company
Distributed byLionsgate
Release date
  • August 11, 2011 (Los Angeles premiere)
  • August 19, 2011 (United States)
Running time
112 minutes[1]
CountryUnited States
LanguageEnglish
Budget$90 million[2]
Box office$63.5 million[2]


Format                         : Matroska
Format version                 : Version 4 / Version 2
File size                      : 878 MiB
Duration                       : 1 h 52 min
Overall bit rate               : 1 088 kb/s
Movie name                     : Conan the Barbarian 2011 GOPI SAHI
Encoded date                   : UTC 2020-06-13 20:54:29

Video
ID                             : 1
Format                         : AVC
Format/Info                    : Advanced Video Codec
Format profile                 : [email protected]
Format settings, CABAC         : Yes
Format settings, RefFrames     : 5 frames
Codec ID                       : V_MPEG4/ISO/AVC
Duration                       : 1 h 52 min
Bit rate                       : 899 kb/s
Width                          : 1 280 pixels
Height                         : 534 pixels
Display aspect ratio           : 2.40:1
Frame rate mode                : Constant
Frame rate                     : 23.976 (24000/1001) FPS
Color space                    : YUV
Chroma subsampling             : 4:2:0
Bit depth                      : 8 bits
Scan type                      : Progressive
Bits/(Pixel*Frame)             : 0.055
Stream size                    : 725 MiB (83%)
Title                          : GOPI SAHI
Writing library                : x264 core 157 r2935 545de2f

Audio #1
ID                             : 2
Format                         : AAC
Format/Info                    : Advanced Audio Codec
Format profile                 : LC
Codec ID                       : A_AAC
Duration                       : 1 h 45 min
Bit rate                       : 96.0 kb/s
Channel(s)                     : 2 channels
Channel positions              : Front: L R
Sampling rate                  : 48.0 kHz
Frame rate                     : 46.875 FPS (1024 SPF)
Compression mode               : Lossy
Delay relative to video        : 20 s 679 ms
Stream size                    : 72.8 MiB (8%)
Title                          : GOPI SAHI
Language                       : Hindi
Default                        : Yes
Forced                         : No

Audio #2
ID                             : 3
Format                         : AAC
Format/Info                    : Advanced Audio Codec
Format profile                 : LC
Codec ID                       : A_AAC
Duration                       : 1 h 52 min
Bit rate                       : 96.0 kb/s
Channel(s)                     : 2 channels
Channel positions              : Front: L R
Sampling rate                  : 48.0 kHz
Frame rate                     : 46.875 FPS (1024 SPF)
Compression mode               : Lossy
Delay relative to video        : -21 ms
Stream size                    : 77.8 MiB (9%)
Title                          : GOPI SAHI
Language                       : English
Default                        : No
Forced                         : No

Text
ID                             : 4
Format                         : UTF-8
Codec ID                       : S_TEXT/UTF8
Codec ID/Info                  : UTF-8 Plain Text
Duration                       : 1 h 43 min
Bit rate                       : 22 b/s
Count of elements              : 606
Stream size                    : 16.7 KiB (0%)
Title                          : GOPI SAHI
Language                       : English
Default                        : Yes
Forced                         : No