City Hunter 1993 x264 720p Esub BluRay Dual Audio English Hindi Sadeemrdp GOPI SAHI

City Hunter (1993)

Sing si lip yan (original title)

A self-indulgent private investigator winds up on a cruise ship full of rich patrons, gorgeous women, murderous terrorists, and scarce food.

Director:

Jing Wong

Writers:

Tsukasa Hôjô (comic), Jing Wong

6.5/10
9,594
 
Directed byWong Jing
Produced byChua Lam
Screenplay byWong Jing
Based onCity Hunter
by Tsukasa Hojo
StarringJackie Chan
Joey Wong
Kumiko Goto
Chingmy Yau
Carol Wan
Leon Lai
Music byRomeo Díaz
James Wong
CinematographyLau Moon-tong
Ma Gam-cheung
Gigo Lee
Edited byCheung Ka-fai
Peter Cheung
Production
company
Golden Harvest
Paragon Films
Golden Way Films
Distributed byGolden Harvest
Gala Film Distribution
Release date
  • 16 January 1993
Running time
105 minutes
CountryHong Kong
LanguageCantonese
Box officeUS$17 million


Format                         : Matroska
Format version                 : Version 4
File size                      : 788 MiB
Duration                       : 1 h 40 min
Overall bit rate               : 1 101 kb/s
Movie name                     : City Hunter 1993 GOPI SAHI

Video
ID                             : 1
Format                         : AVC
Format/Info                    : Advanced Video Codec
Format profile                 : [email protected]
Format settings                : CABAC / 5 Ref Frames
Format settings, CABAC         : Yes
Format settings, Reference fra : 5 frames
Codec ID                       : V_MPEG4/ISO/AVC
Duration                       : 1 h 40 min
Bit rate                       : 899 kb/s
Width                          : 1 280 pixels
Height                         : 694 pixels
Display aspect ratio           : 1.85:1
Frame rate mode                : Constant
Frame rate                     : 23.976 (24000/1001) FPS
Color space                    : YUV
Chroma subsampling             : 4:2:0
Bit depth                      : 8 bits
Scan type                      : Progressive
Bits/(Pixel*Frame)             : 0.042
Stream size                    : 643 MiB (82%)
Title                          : GOPI SAHI
Writing library                : x264 core 157 r2935 545de2f

Audio #1
ID                             : 2
Format                         : AAC LC
Format/Info                    : Advanced Audio Codec Low Complexity
Codec ID                       : A_AAC-2
Duration                       : 1 h 39 min
Bit rate                       : 96.0 kb/s
Channel(s)                     : 2 channels
Channel layout                 : L R
Sampling rate                  : 48.0 kHz
Frame rate                     : 46.875 FPS (1024 SPF)
Compression mode               : Lossy
Delay relative to video        : -21 ms
Stream size                    : 68.4 MiB (9%)
Title                          : GOPI SAHI
Language                       : Hindi
Default                        : Yes
Forced                         : No

Audio #2
ID                             : 3
Format                         : AAC LC
Format/Info                    : Advanced Audio Codec Low Complexity
Codec ID                       : A_AAC-2
Duration                       : 1 h 39 min
Bit rate                       : 96.0 kb/s
Channel(s)                     : 2 channels
Channel layout                 : L R
Sampling rate                  : 48.0 kHz
Frame rate                     : 46.875 FPS (1024 SPF)
Compression mode               : Lossy
Delay relative to video        : -21 ms
Stream size                    : 68.5 MiB (9%)
Title                          : GOPI SAHI
Language                       : English
Default                        : No
Forced                         : No

Text
ID                             : 4
Format                         : PGS
Muxing mode                    : zlib
Codec ID                       : S_HDMV/PGS
Codec ID/Info                  : Picture based subtitle format used on BDs/HD-DVDs
Duration                       : 1 h 35 min
Bit rate                       : 24.0 kb/s
Count of elements              : 1392
Stream size                    : 16.3 MiB (2%)
Title                          : GOPI SAHI
Language                       : English
Default                        : No
Forced                         : No

Menu
00:00:00.000                   : :Chapter 1
00:09:04.210                   : :Chapter 2
00:19:07.521                   : :Chapter 3
00:29:32.437                   : :Chapter 4
00:40:48.321                   : :Chapter 5
00:51:00.099                   : :Chapter 6
00:59:16.344                   : :Chapter 7
01:08:36.237                   : :Chapter 8
01:15:02.164                   : :Chapter 9
01:22:42.082                   : :Chapter 10
01:32:56.780                   : :Chapter 11
01:36:34.872                   : :Chapter 12