Chintu Ka Birthday 2020 x264 720p Zee5 Hindi Sadeemrdp GOPI SAHI

Chintu Ka Birthday (2020)

A | | Drama | 5 June 2020 (India)

During US invasion of Iraq some illegal migrants are waiting to get back home to India. As one such family prepares to celebrate the 6th birthday of their youngest member Chintu, their kind-hearted Iraqi landlord lends them a helping hand.

Directors:

Devanshu Kumar (co-director), Satyanshu Singh (co-director)

Directed byDevanshu Kumar
Satyanshu Singh
Produced byTanmay Bhat
Rohan Joshi
Ashish Shakya
Gursimran Khamba
Written byDevanshu Kumar
Satyanshu Singh
Starring
Music byNaren Chandavarkar
Benedict Taylor
CinematographySiddharth Diwan
Edited byCharu Shree Roy
Production
company
Final Draft
Distributed byZEE5
Release date
  • 20 October 2019 (JFF)
  • 5 June 2020
CountryIndia
LanguageHindi

Format version                 : Version 4
File size                      : 594 MiB
Duration                       : 1 h 23 min
Overall bit rate               : 997 kb/s
Movie name                     : Chintu Ka Birthday 2020 GOPI SAHI
Encoded date                   : UTC 2020-06-05 10:23:10

Video
ID                             : 1
Format                         : AVC
Format/Info                    : Advanced Video Codec
Format profile                 : [email protected]
Format settings                : CABAC / 5 Ref Frames
Format settings, CABAC         : Yes
Format settings, Reference fra : 5 frames
Codec ID                       : V_MPEG4/ISO/AVC
Duration                       : 1 h 23 min
Bit rate                       : 899 kb/s
Width                          : 1 280 pixels
Height                         : 536 pixels
Display aspect ratio           : 2.40:1
Frame rate mode                : Constant
Frame rate                     : 25.000 FPS
Color space                    : YUV
Chroma subsampling             : 4:2:0
Bit depth                      : 8 bits
Scan type                      : Progressive
Bits/(Pixel*Frame)             : 0.052
Stream size                    : 535 MiB (90%)
Title                          : GOPI SAHI
Writing library                : x264 core 157 r2935 545de2f

Audio
ID                             : 2
Format                         : AAC LC
Format/Info                    : Advanced Audio Codec Low Complexity
Codec ID                       : A_AAC-2
Duration                       : 1 h 23 min
Bit rate                       : 96.0 kb/s
Channel(s)                     : 2 channels
Channel layout                 : L R
Sampling rate                  : 48.0 kHz
Frame rate                     : 46.875 FPS (1024 SPF)
Compression mode               : Lossy
Delay relative to video        : -54 ms
Stream size                    : 57.6 MiB (10%)
Title                          : GOPI SAHI
Language                       : Hindi
Default                        : Yes
Forced                         : No