Captain America The First Avenger 2011 x264 720p Esub BluRay Dual Audio English Hindi GOPI SAHI

Captain America: The First Avenger (2011)


Steve Rogers, a rejected military soldier, transforms into Captain America after taking a dose of a "Super-Soldier serum". But being Captain America comes at a price as he attempts to take down a war monger and a terrorist organization.

Director:

Joe Johnston

Writers:

Christopher Markus (screenplay), Stephen McFeely (screenplay) | 2 more credits »
6.9/10
716,401

Directed byJoe Johnston
Produced byKevin Feige
Screenplay byChristopher Markus
Stephen McFeely
Based on
Starring
Music byAlan Silvestri
CinematographyShelly Johnson
Edited by
Production
company
Distributed byParamount Pictures[N 1]
Release date
Running time
124 minutes[4]
CountryUnited States
LanguageEnglish
Budget$140–216.7 million[5][6]
Box office$370.6 million[7]


Format                         : Matroska
Format version                 : Version 4
File size                      : 991 MiB
Duration                       : 2 h 4 min
Overall bit rate               : 1 111 kb/s
Movie name                     : Captain America The First Avenger 2011 GOPI SAHI
Encoded date                   : UTC 2020-06-13 04:50:41

Video
ID                             : 1
Format                         : AVC
Format/Info                    : Advanced Video Codec
Format profile                 : [email protected]
Format settings                : CABAC / 5 Ref Frames
Format settings, CABAC         : Yes
Format settings, Reference fra : 5 frames
Codec ID                       : V_MPEG4/ISO/AVC
Duration                       : 2 h 4 min
Bit rate                       : 899 kb/s
Width                          : 1 280 pixels
Height                         : 544 pixels
Display aspect ratio           : 2.35:1
Frame rate mode                : Constant
Frame rate                     : 23.976 (24000/1001) FPS
Color space                    : YUV
Chroma subsampling             : 4:2:0
Bit depth                      : 8 bits
Scan type                      : Progressive
Bits/(Pixel*Frame)             : 0.054
Stream size                    : 798 MiB (81%)
Title                          : GOPI SAHI
Writing library                : x264 core 157 r2935 545de2f

Audio #1
ID                             : 2
Format                         : AAC LC
Format/Info                    : Advanced Audio Codec Low Complexity
Codec ID                       : A_AAC-2
Duration                       : 2 h 4 min
Bit rate                       : 96.0 kb/s
Channel(s)                     : 2 channels
Channel layout                 : L R
Sampling rate                  : 48.0 kHz
Frame rate                     : 46.875 FPS (1024 SPF)
Compression mode               : Lossy
Delay relative to video        : 1 s 479 ms
Stream size                    : 85.6 MiB (9%)
Title                          : GOPI SAHI
Language                       : Hindi
Default                        : Yes
Forced                         : No

Audio #2
ID                             : 3
Format                         : AAC LC
Format/Info                    : Advanced Audio Codec Low Complexity
Codec ID                       : A_AAC-2
Duration                       : 2 h 4 min
Bit rate                       : 96.0 kb/s
Channel(s)                     : 2 channels
Channel layout                 : L R
Sampling rate                  : 48.0 kHz
Frame rate                     : 46.875 FPS (1024 SPF)
Compression mode               : Lossy
Delay relative to video        : -21 ms
Stream size                    : 85.6 MiB (9%)
Title                          : GOPI SAHI
Language                       : English
Default                        : No
Forced                         : No

Text #1
ID                             : 4
Format                         : PGS
Muxing mode                    : zlib
Codec ID                       : S_HDMV/PGS
Codec ID/Info                  : Picture based subtitle format used on BDs/HD-DVDs
Duration                       : 2 h 2 min
Bit rate                       : 27.4 kb/s
Count of elements              : 2408
Stream size                    : 24.1 MiB (2%)
Title                          : GOPI SAHI
Language                       : English
Default                        : Yes
Forced                         : No

Text #2
ID                             : 5
Format                         : PGS
Muxing mode                    : zlib
Codec ID                       : S_HDMV/PGS
Codec ID/Info                  : Picture based subtitle format used on BDs/HD-DVDs
Duration                       : 1 h 56 min
Bit rate                       : 51.0 kb/s
Count of elements              : 3044
Stream size                    : 42.5 MiB (4%)
Title                          : GOPI SAHI
Language                       : English
Default                        : No
Forced                         : No