Captain America Civil War 2016 x264 720p Esub BluRay Dual Audio English Hindi GOPI SAHI

Captain America: Civil War (2016)

PG-13 | | Action, Adventure, Sci-Fi | 6 May 2016 (USA) 
 
Political involvement in the Avengers' affairs causes a rift between Captain America and Iron Man.

Directors:

Anthony Russo, Joe Russo

Writers:

Christopher Markus (screenplay by), Stephen McFeely (screenplay by) | 2 more credits »
7.8/10
635,981

Directed by
Produced byKevin Feige
Screenplay by
Based on
Starring
Music byHenry Jackman
CinematographyTrent Opaloch
Edited by
Production
company
Distributed byWalt Disney Studios
Motion Pictures
Release date
Running time
147 minutes[1][2]
CountryUnited States
LanguageEnglish
Budget$250 million[3][4]
Box office$1.153 billion[3]


Format                         : Matroska
Format version                 : Version 4
File size                      : 1.15 GiB
Duration                       : 2 h 27 min
Overall bit rate               : 1 116 kb/s
Movie name                     : Captain America Civil War 2016 GOPI SAHI
Encoded date                   : UTC 2020-06-13 04:48:04

Video
ID                             : 1
Format                         : AVC
Format/Info                    : Advanced Video Codec
Format profile                 : [email protected]
Format settings                : CABAC / 5 Ref Frames
Format settings, CABAC         : Yes
Format settings, Reference fra : 5 frames
Codec ID                       : V_MPEG4/ISO/AVC
Duration                       : 2 h 27 min
Bit rate                       : 899 kb/s
Width                          : 1 280 pixels
Height                         : 534 pixels
Display aspect ratio           : 2.40:1
Frame rate mode                : Constant
Frame rate                     : 23.976 (24000/1001) FPS
Color space                    : YUV
Chroma subsampling             : 4:2:0
Bit depth                      : 8 bits
Scan type                      : Progressive
Bits/(Pixel*Frame)             : 0.055
Stream size                    : 950 MiB (81%)
Title                          : GOPI SAHI
Writing library                : x264 core 157 r2935 545de2f

Audio #1
ID                             : 2
Format                         : AAC LC
Format/Info                    : Advanced Audio Codec Low Complexity
Codec ID                       : A_AAC-2
Duration                       : 2 h 27 min
Bit rate                       : 96.0 kb/s
Channel(s)                     : 2 channels
Channel layout                 : L R
Sampling rate                  : 48.0 kHz
Frame rate                     : 46.875 FPS (1024 SPF)
Compression mode               : Lossy
Delay relative to video        : -21 ms
Stream size                    : 102 MiB (9%)
Title                          : GOPI SAHI
Language                       : Hindi
Default                        : Yes
Forced                         : No

Audio #2
ID                             : 3
Format                         : AAC LC
Format/Info                    : Advanced Audio Codec Low Complexity
Codec ID                       : A_AAC-2
Duration                       : 2 h 27 min
Bit rate                       : 96.0 kb/s
Channel(s)                     : 2 channels
Channel layout                 : L R
Sampling rate                  : 48.0 kHz
Frame rate                     : 46.875 FPS (1024 SPF)
Compression mode               : Lossy
Delay relative to video        : -21 ms
Stream size                    : 102 MiB (9%)
Title                          : GOPI SAHI
Language                       : English
Default                        : No
Forced                         : No

Text
ID                             : 4
Format                         : PGS
Muxing mode                    : zlib
Codec ID                       : S_HDMV/PGS
Codec ID/Info                  : Picture based subtitle format used on BDs/HD-DVDs
Duration                       : 2 h 25 min
Bit rate                       : 47.1 kb/s
Count of elements              : 3730
Stream size                    : 49.2 MiB (4%)
Title                          : GOPI SAHI
Language                       : English
Default                        : Yes
Forced                         : No