Bulbbul 2020 x264 720p Esub NetFLix Dual Audio English Hindi GOPI SAHI

Bulbbul (2020)

Completed

Expected June 24, 2020
A man returns home after years to find his brother's child bride now grown up and abandoned, and his ancestral village plagued by mysterious deaths.

Director:

Anvita Dutt

Writer:

Anvita Dutt

Directed byAnvita Dutt
Produced byAnushka Sharma
Karnesh Sharma
Written byAnvita Dutt
Starring
Production
company
Distributed byNetflix
Release date
  • 24 June 2020
Running time
94 minutes
CountryIndia
LanguageHindi

Format                         : Matroska
Format version                 : Version 4 / Version 2
File size                      : 732 MiB
Duration                       : 1 h 34 min
Overall bit rate               : 1 087 kb/s
Movie name                     : Bulbbul 2020 GOPI SAHI
Encoded date                   : UTC 2020-06-24 09:26:15

Video
ID                             : 1
Format                         : AVC
Format/Info                    : Advanced Video Codec
Format profile                 : [email protected]
Format settings, CABAC         : Yes
Format settings, RefFrames     : 5 frames
Codec ID                       : V_MPEG4/ISO/AVC
Duration                       : 1 h 34 min
Bit rate                       : 899 kb/s
Width                          : 1 280 pixels
Height                         : 650 pixels
Display aspect ratio           : 1.969
Frame rate mode                : Constant
Frame rate                     : 24.000 FPS
Color space                    : YUV
Chroma subsampling             : 4:2:0
Bit depth                      : 8 bits
Scan type                      : Progressive
Bits/(Pixel*Frame)             : 0.045
Stream size                    : 600 MiB (82%)
Title                          : GOPI SAHI
Writing library                : x264 core 157 r2935 545de2f

Audio #1
ID                             : 2
Format                         : AAC
Format/Info                    : Advanced Audio Codec
Format profile                 : LC
Codec ID                       : A_AAC
Duration                       : 1 h 34 min
Bit rate                       : 96.0 kb/s
Channel(s)                     : 2 channels
Channel positions              : Front: L R
Sampling rate                  : 48.0 kHz
Frame rate                     : 46.875 FPS (1024 SPF)
Compression mode               : Lossy
Delay relative to video        : -21 ms
Stream size                    : 64.7 MiB (9%)
Title                          : GOPI SAHI
Language                       : Hindi
Default                        : Yes
Forced                         : No

Audio #2
ID                             : 3
Format                         : AAC
Format/Info                    : Advanced Audio Codec
Format profile                 : LC
Codec ID                       : A_AAC
Duration                       : 1 h 34 min
Bit rate                       : 96.0 kb/s
Channel(s)                     : 2 channels
Channel positions              : Front: L R
Sampling rate                  : 48.0 kHz
Frame rate                     : 46.875 FPS (1024 SPF)
Compression mode               : Lossy
Delay relative to video        : -21 ms
Stream size                    : 64.8 MiB (9%)
Title                          : GOPI SAHI
Language                       : English
Default                        : No
Forced                         : No

Text
ID                             : 4
Format                         : UTF-8
Codec ID                       : S_TEXT/UTF8
Codec ID/Info                  : UTF-8 Plain Text
Duration                       : 1 h 30 min
Bit rate                       : 25 b/s
Count of elements              : 661
Stream size                    : 16.9 KiB (0%)
Title                          : GOPI SAHI
Language                       : English
Default                        : Yes
Forced                         : No