Black Panther 2018 x264 720p Esub BluRay Dual Audio English Hindi GOPI SAHI

Black Panther (2018)

T'Challa, heir to the hidden but advanced kingdom of Wakanda, must step forward to lead his people into a new future and must confront a challenger from his country's past.

Director:

Ryan Coogler
7.3/10


Directed byRyan Coogler
Produced byKevin Feige
Written by
Based on
Starring
Music byLudwig Göransson
CinematographyRachel Morrison
Edited by
Production
company
Distributed byWalt Disney Studios
Motion Pictures
Release date
  • January 29, 2018 (Dolby Theatre)
  • February 16, 2018 (United States)
Running time
134 minutes[1]
CountryUnited States
LanguageEnglish
Budget$200 million[2][3]
Box office$1.347 billion[4]




Format                         : Matroska
Format version                 : Version 4
File size                      : 1.06 GiB
Duration                       : 2 h 14 min
Overall bit rate               : 1 130 kb/s
Movie name                     : Black Panther 2018 GOPI SAHI
Encoded date                   : UTC 2020-06-14 06:13:05

Video
ID                             : 1
Format                         : AVC
Format/Info                    : Advanced Video Codec
Format profile                 : [email protected]
Format settings                : CABAC / 5 Ref Frames
Format settings, CABAC         : Yes
Format settings, Reference fra : 5 frames
Codec ID                       : V_MPEG4/ISO/AVC
Duration                       : 2 h 14 min
Bit rate                       : 899 kb/s
Width                          : 1 280 pixels
Height                         : 534 pixels
Display aspect ratio           : 2.40:1
Frame rate mode                : Constant
Frame rate                     : 23.976 (24000/1001) FPS
Color space                    : YUV
Chroma subsampling             : 4:2:0
Bit depth                      : 8 bits
Scan type                      : Progressive
Bits/(Pixel*Frame)             : 0.055
Stream size                    : 865 MiB (80%)
Title                          : GOPI SAHI
Writing library                : x264 core 157 r2935 545de2f

Audio #1
ID                             : 2
Format                         : AAC LC
Format/Info                    : Advanced Audio Codec Low Complexity
Codec ID                       : A_AAC-2
Duration                       : 2 h 14 min
Bit rate                       : 96.0 kb/s
Channel(s)                     : 2 channels
Channel layout                 : L R
Sampling rate                  : 48.0 kHz
Frame rate                     : 46.875 FPS (1024 SPF)
Compression mode               : Lossy
Delay relative to video        : 779 ms
Stream size                    : 92.8 MiB (9%)
Title                          : GOPI SAHI
Language                       : Hindi
Default                        : Yes
Forced                         : No

Audio #2
ID                             : 3
Format                         : AAC LC
Format/Info                    : Advanced Audio Codec Low Complexity
Codec ID                       : A_AAC-2
Duration                       : 2 h 14 min
Bit rate                       : 96.0 kb/s
Channel(s)                     : 2 channels
Channel layout                 : L R
Sampling rate                  : 48.0 kHz
Frame rate                     : 46.875 FPS (1024 SPF)
Compression mode               : Lossy
Delay relative to video        : -21 ms
Stream size                    : 92.8 MiB (9%)
Title                          : GOPI SAHI
Language                       : English
Default                        : No
Forced                         : No

Text #1
ID                             : 4
Format                         : PGS
Muxing mode                    : zlib
Codec ID                       : S_HDMV/PGS
Codec ID/Info                  : Picture based subtitle format used on BDs/HD-DVDs
Duration                       : 2 h 14 min
Bit rate                       : 32.6 kb/s
Count of elements              : 3670
Stream size                    : 31.2 MiB (3%)
Title                          : GOPI SAHI
Language                       : English
Default                        : Yes
Forced                         : No

Text #2
ID                             : 5
Format                         : PGS
Muxing mode                    : zlib
Codec ID                       : S_HDMV/PGS
Codec ID/Info                  : Picture based subtitle format used on BDs/HD-DVDs
Duration                       : 2 h 14 min
Bit rate                       : 78.7 kb/s
Count of elements              : 5252
Stream size                    : 75.5 MiB (7%)
Title                          : GOPI SAHI
Language                       : English
Default                        : No
Forced                         : No