Axone 2019 x264 720p Esub NetFLix Hindi GOPI SAHI

Axone (2019)

16 | | Comedy, Drama | 12 June 2020 (India) 
 
Follows migrants in Delhi, in their attempt to organize a wedding party, they find out everything is not going according to plan.
8.0/10

Directed byNicholas Kharkongor
Produced bySiddharth Anand Kumar
Vikram Mehra
StarringDolly Ahluwalia
Lanuakum Ao
Aakash Bhardwaj
Music byTajdar Junaid
CinematographyParasher Baruah
Edited bySuresh Pai
Production
company
Release date
  • 2 October 2019 (London)
  • 19 October 2019 (Mumbai)
  • 12 June 2020
[2]
Running time
96 minutes
CountryIndia
LanguageHindi


Format                         : Matroska
Format version                 : Version 4 / Version 2
File size                      : 714 MiB
Duration                       : 1 h 40 min
Overall bit rate               : 991 kb/s
Movie name                     : Axone 2019 GOPI SAHI
Encoded date                   : UTC 2020-06-12 17:08:52

Video
ID                             : 1
Format                         : AVC
Format/Info                    : Advanced Video Codec
Format profile                 : [email protected]
Format settings, CABAC         : Yes
Format settings, RefFrames     : 5 frames
Codec ID                       : V_MPEG4/ISO/AVC
Duration                       : 1 h 40 min
Bit rate                       : 899 kb/s
Width                          : 1 280 pixels
Height                         : 536 pixels
Display aspect ratio           : 2.40:1
Frame rate mode                : Constant
Frame rate                     : 24.000 FPS
Color space                    : YUV
Chroma subsampling             : 4:2:0
Bit depth                      : 8 bits
Scan type                      : Progressive
Bits/(Pixel*Frame)             : 0.055
Stream size                    : 643 MiB (90%)
Title                          : GOPI SAHI
Writing library                : x264 core 157 r2935 545de2f

Audio
ID                             : 2
Format                         : AAC
Format/Info                    : Advanced Audio Codec
Format profile                 : LC
Codec ID                       : A_AAC
Duration                       : 1 h 40 min
Bit rate                       : 96.0 kb/s
Channel(s)                     : 2 channels
Channel positions              : Front: L R
Sampling rate                  : 44.1 kHz
Frame rate                     : 43.066 FPS (1024 SPF)
Compression mode               : Lossy
Delay relative to video        : -23 ms
Stream size                    : 69.6 MiB (10%)
Title                          : GOPI SAHI
Language                       : Hindi
Default                        : Yes
Forced                         : No

Text
ID                             : 3
Format                         : UTF-8
Codec ID                       : S_TEXT/UTF8
Codec ID/Info                  : UTF-8 Plain Text
Duration                       : 1 h 37 min
Bit rate                       : 39 b/s
Count of elements              : 883
Stream size                    : 28.2 KiB (0%)
Title                          : GOPI SAHI
Language                       : English
Default                        : Yes
Forced                         : No