Avengers Infinity War 2018 x264 720p Esub BluRay Dual Audio English Hindi GOPI SAHI

Avengers: Infinity War (2018)

The Avengers and their allies must be willing to sacrifice all in an attempt to defeat the powerful Thanos before his blitz of devastation and ruin puts an end to the universe.

Directors:

Anthony Russo, Joe Russo

Writers:

Christopher Markus (screenplay by), Stephen McFeely (screenplay by) |14 more credits »

8.5/10
777,563

Directed by
Produced byKevin Feige
Screenplay by
Based on
Starring
Music byAlan Silvestri
CinematographyTrent Opaloch
Edited by
Production
company
Distributed byWalt Disney Studios Motion Pictures
Release date
  • April 23, 2018 (Dolby Theatre)
  • April 27, 2018 (United States)
Running time
149 minutes[1]
CountryUnited States
LanguageEnglish
Budget$316–400 million[2][3][4]
Box office$2.048 billion[5]

Format                         : Matroska
Format version                 : Version 4 / Version 2
File size                      : 1.15 GiB
Duration                       : 2 h 29 min
Overall bit rate               : 1 105 kb/s
Movie name                     : 3 Avengers Infinity War 2018 GOPI SAHI
Encoded date                   : UTC 2020-06-10 15:28:17

Video
ID                             : 1
Format                         : AVC
Format/Info                    : Advanced Video Codec
Format profile                 : [email protected]
Format settings, CABAC         : Yes
Format settings, RefFrames     : 5 frames
Codec ID                       : V_MPEG4/ISO/AVC
Duration                       : 2 h 29 min
Bit rate                       : 899 kb/s
Width                          : 1 280 pixels
Height                         : 536 pixels
Display aspect ratio           : 2.40:1
Frame rate mode                : Constant
Frame rate                     : 23.976 (24000/1001) FPS
Color space                    : YUV
Chroma subsampling             : 4:2:0
Bit depth                      : 8 bits
Scan type                      : Progressive
Bits/(Pixel*Frame)             : 0.055
Stream size                    : 960 MiB (81%)
Title                          : GOPI SAHI
Writing library                : x264 core 157 r2935 545de2f

Audio #1
ID                             : 2
Format                         : AAC
Format/Info                    : Advanced Audio Codec
Format profile                 : LC
Codec ID                       : A_AAC
Duration                       : 2 h 29 min
Bit rate                       : 96.0 kb/s
Channel(s)                     : 2 channels
Channel positions              : Front: L R
Sampling rate                  : 48.0 kHz
Frame rate                     : 46.875 FPS (1024 SPF)
Compression mode               : Lossy
Delay relative to video        : -21 ms
Stream size                    : 103 MiB (9%)
Title                          : GOPI SAHI
Language                       : Hindi
Default                        : Yes
Forced                         : No

Audio #2
ID                             : 3
Format                         : AAC
Format/Info                    : Advanced Audio Codec
Format profile                 : LC
Codec ID                       : A_AAC
Duration                       : 2 h 29 min
Bit rate                       : 96.0 kb/s
Channel(s)                     : 2 channels
Channel positions              : Front: L R
Sampling rate                  : 48.0 kHz
Frame rate                     : 46.875 FPS (1024 SPF)
Compression mode               : Lossy
Delay relative to video        : -21 ms
Stream size                    : 103 MiB (9%)
Title                          : GOPI SAHI
Language                       : English
Default                        : No
Forced                         : No

Text #1
ID                             : 4
Format                         : PGS
Muxing mode                    : zlib
Codec ID                       : S_HDMV/PGS
Codec ID/Info                  : Picture based subtitle format used on BDs/HD-DVDs
Duration                       : 2 h 17 min
Bit rate                       : 35 b/s
Count of elements              : 6
Stream size                    : 35.5 KiB (0%)
Title                          : GOPI SAHI
Language                       : Hindi
Default                        : Yes
Forced                         : No

Text #2
ID                             : 5
Format                         : PGS
Muxing mode                    : zlib
Codec ID                       : S_HDMV/PGS
Codec ID/Info                  : Picture based subtitle format used on BDs/HD-DVDs
Duration                       : 2 h 28 min
Bit rate                       : 32.9 kb/s
Count of elements              : 4134
Stream size                    : 34.9 MiB (3%)
Title                          : GOPI SAHI
Language                       : English
Default                        : No
Forced                         : No