Avengers Endgame 2019 x264 720p Esub BluRay Dual Audio English Hindi GOPI SAHI

Avengers: Endgame (2019)

 
After the devastating events of Avengers: Infinity War (2018), the universe is in ruins. With the help of remaining allies, the Avengers assemble once more in order to reverse Thanos' actions and restore balance to the universe.

Directors:

Anthony Russo, Joe Russo

Writers:

Christopher Markus (screenplay by), Stephen McFeely (screenplay by) |14 more credits »

irected by
Produced byKevin Feige
Screenplay by
Based on
Starring
Music byAlan Silvestri
CinematographyTrent Opaloch
Edited by
Production
company
Distributed byWalt Disney Studios
Motion Pictures
Release date
Running time
181 minutes[1]
CountryUnited States[2]
LanguageEnglish
Budget$356 million[3]
Box office$2.798 billion[3]


Format                         : Matroska
Format version                 : Version 4 / Version 2
File size                      : 1.43 GiB
Duration                       : 3 h 2 min
Overall bit rate               : 1 123 kb/s
Movie name                     : 4 Avengers Endgame 2019 GOPI SAHI
Encoded date                   : UTC 2020-06-10 15:29:46


Video
ID                             : 1
Format                         : AVC
Format/Info                    : Advanced Video Codec
Format profile                 : [email protected]
Format settings, CABAC         : Yes
Format settings, RefFrames     : 5 frames
Codec ID                       : V_MPEG4/ISO/AVC
Duration                       : 3 h 1 min
Bit rate                       : 899 kb/s
Width                          : 1 280 pixels
Height                         : 534 pixels
Display aspect ratio           : 2.40:1
Frame rate mode                : Constant
Frame rate                     : 23.976 (24000/1001) FPS
Color space                    : YUV
Chroma subsampling             : 4:2:0
Bit depth                      : 8 bits
Scan type                      : Progressive
Bits/(Pixel*Frame)             : 0.055
Stream size                    : 1.14 GiB (80%)
Title                          : GOPI SAHI
Writing library                : x264 core 157 r2935 545de2f

Audio #1
ID                             : 2
Format                         : AAC
Format/Info                    : Advanced Audio Codec
Format profile                 : LC
Codec ID                       : A_AAC
Duration                       : 3 h 2 min
Bit rate                       : 96.0 kb/s
Channel(s)                     : 2 channels
Channel positions              : Front: L R
Sampling rate                  : 48.0 kHz
Frame rate                     : 46.875 FPS (1024 SPF)
Compression mode               : Lossy
Delay relative to video        : 2 s 779 ms
Stream size                    : 125 MiB (9%)
Title                          : GOPI SAHI
Language                       : Hindi
Default                        : Yes
Forced                         : No

Audio #2
ID                             : 3
Format                         : AAC
Format/Info                    : Advanced Audio Codec
Format profile                 : LC
Codec ID                       : A_AAC
Duration                       : 3 h 1 min
Bit rate                       : 96.0 kb/s
Channel(s)                     : 2 channels
Channel positions              : Front: L R
Sampling rate                  : 48.0 kHz
Frame rate                     : 46.875 FPS (1024 SPF)
Compression mode               : Lossy
Delay relative to video        : -21 ms
Stream size                    : 125 MiB (9%)
Title                          : GOPI SAHI
Language                       : English
Default                        : No
Forced                         : No

Text #1
ID                             : 4
Format                         : PGS
Muxing mode                    : zlib
Codec ID                       : S_HDMV/PGS
Codec ID/Info                  : Picture based subtitle format used on BDs/HD-DVDs
Duration                       : 3 h 0 min
Bit rate                       : 70.0 kb/s
Count of elements              : 6520
Stream size                    : 90.6 MiB (6%)
Title                          : GOPI SAHI
Language                       : English
Default                        : Yes
Forced                         : No

Text #2
ID                             : 5
Format                         : PGS
Muxing mode                    : zlib
Codec ID                       : S_HDMV/PGS
Codec ID/Info                  : Picture based subtitle format used on BDs/HD-DVDs
Duration                       : 3 h 0 min
Bit rate                       : 33.9 kb/s
Count of elements              : 5266
Stream size                    : 43.8 MiB (3%)
Title                          : GOPI SAHI
Language                       : English
Default                        : No
Forced                         : No