Avengers Age of Ultron 2015 720p Esub BluRay Dual Audio English Hindi GOPI SAHI

Avengers: Age of Ultron (2015)

 
When Tony Stark and Bruce Banner try to jump-start a dormant peacekeeping program called Ultron, things go horribly wrong and it's up to Earth's mightiest heroes to stop the villainous Ultron from enacting his terrible plan.

Director:

Joss Whedon

Writers:

Joss Whedon, Stan Lee (based on the Marvel comics by) |4 more credits »

Directed byJoss Whedon
Produced byKevin Feige
Written byJoss Whedon
Based on
Starring
Music by
CinematographyBen Davis
Edited by
Production
company
Distributed byWalt Disney Studios
Motion Pictures
Release date
Running time
141 minutes[1]
CountryUnited States
LanguageEnglish
Budget
  • $444–495.2 million (gross)[2][3]
  • $365.5 million (net)[2]
Box office$1.403 billion[4]

Format                         : Matroska
Format version                 : Version 4 / Version 2
File size                      : 1.10 GiB
Duration                       : 2 h 23 min
Overall bit rate               : 1 103 kb/s
Movie name                     : Avengers Age of Ultron 2015 GOPI SAHI
Encoded date                   : UTC 2020-06-09 21:01:45

Video
ID                             : 1
Format                         : AVC
Format/Info                    : Advanced Video Codec
Format profile                 : [email protected]
Format settings, CABAC         : Yes
Format settings, RefFrames     : 5 frames
Codec ID                       : V_MPEG4/ISO/AVC
Duration                       : 2 h 21 min
Bit rate                       : 899 kb/s
Width                          : 1 280 pixels
Height                         : 534 pixels
Display aspect ratio           : 2.40:1
Frame rate mode                : Constant
Frame rate                     : 23.976 (24000/1001) FPS
Color space                    : YUV
Chroma subsampling             : 4:2:0
Bit depth                      : 8 bits
Scan type                      : Progressive
Bits/(Pixel*Frame)             : 0.055
Stream size                    : 909 MiB (81%)
Title                          : GOPI SAHI
Writing library                : x264 core 157 r2935 545de2f

Audio #1
ID                             : 2
Format                         : AAC
Format/Info                    : Advanced Audio Codec
Format profile                 : LC
Codec ID                       : A_AAC
Duration                       : 2 h 23 min
Bit rate                       : 96.0 kb/s
Channel(s)                     : 2 channels
Channel positions              : Front: L R
Sampling rate                  : 48.0 kHz
Frame rate                     : 46.875 FPS (1024 SPF)
Compression mode               : Lossy
Delay relative to video        : 1 s 29 ms
Stream size                    : 97.5 MiB (9%)
Title                          : GOPI SAHI
Language                       : Hindi
Default                        : Yes
Forced                         : No

Audio #2
ID                             : 3
Format                         : AAC
Format/Info                    : Advanced Audio Codec
Format profile                 : LC
Codec ID                       : A_AAC
Duration                       : 2 h 21 min
Bit rate                       : 96.0 kb/s
Channel(s)                     : 2 channels
Channel positions              : Front: L R
Sampling rate                  : 48.0 kHz
Frame rate                     : 46.875 FPS (1024 SPF)
Compression mode               : Lossy
Delay relative to video        : -21 ms
Stream size                    : 97.4 MiB (9%)
Title                          : GOPI SAHI
Language                       : English
Default                        : No
Forced                         : No

Text
ID                             : 4
Format                         : PGS
Muxing mode                    : zlib
Codec ID                       : S_HDMV/PGS
Codec ID/Info                  : Picture based subtitle format used on BDs/HD-DVDs
Duration                       : 2 h 12 min
Bit rate                       : 52.3 kb/s
Count of elements              : 3714
Stream size                    : 49.7 MiB (4%)
Title                          : GOPI SAHI
Language                       : English
Default                        : Yes
Forced                         : No