Avatar 2009 Extended Cut x264 720p Esub BluRay Dual Audio English Hindi GOPISAHI

Avatar (2009)


A paraplegic Marine dispatched to the moon Pandora on a unique mission becomes torn between following his orders and protecting the world he feels is his home.

Director:

James Cameron

Writer:

James Cameron

7.8/10
1,093,855

Directed byJames Cameron
Produced by
Written byJames Cameron
Starring
Music byJames Horner
CinematographyMauro Fiore
Edited by
Production
company
Distributed by20th Century Fox[2]
Release date
  • December 10, 2009 (London)
  • December 18, 2009 (United States)
Running time
162 minutes[3]
CountryUnited States
LanguageEnglish
Budget$237 million[4]
$9 million+ (re-release)[5]
Box office$2.79 billion[6][7]

Format                         : Matroska
Format version                 : Version 4 / Version 2
File size                      : 2.13 GiB
Duration                       : 2 h 58 min
Overall bit rate               : 1 715 kb/s
Movie name                     : Avatar 2009 Extended Cut GOPI SAHI
Encoded date                   : UTC 2020-06-17 03:31:58

Video
ID                             : 1
Format                         : AVC
Format/Info                    : Advanced Video Codec
Format profile                 : [email protected]
Format settings, CABAC         : Yes
Format settings, RefFrames     : 5 frames
Codec ID                       : V_MPEG4/ISO/AVC
Duration                       : 2 h 58 min
Bit rate                       : 1 499 kb/s
Width                          : 1 280 pixels
Height                         : 720 pixels
Display aspect ratio           : 16:9
Frame rate mode                : Constant
Frame rate                     : 23.976 (24000/1001) FPS
Color space                    : YUV
Chroma subsampling             : 4:2:0
Bit depth                      : 8 bits
Scan type                      : Progressive
Bits/(Pixel*Frame)             : 0.068
Stream size                    : 1.86 GiB (87%)
Title                          : GOPI SAHI
Writing library                : x264 core 157 r2935 545de2f
Audio #1ID                             : 2
Format                         : AAC
Format/Info                    : Advanced Audio Codec
Format profile                 : LC
Codec ID                       : A_AAC
Duration                       : 2 h 58 min
Bit rate                       : 96.0 kb/s
Channel(s)                     : 2 channels
Channel positions              : Front: L R
Sampling rate                  : 48.0 kHz
Frame rate                     : 46.875 FPS (1024 SPF)
Compression mode               : Lossy
Delay relative to video        : -21 ms
Stream size                    : 123 MiB (6%)
Title                          : GOPI SAHI
Language                       : Hindi
Default                        : Yes
Forced                         : No

Audio #2
ID                             : 3
Format                         : AAC
Format/Info                    : Advanced Audio Codec
Format profile                 : LC
Codec ID                       : A_AAC
Duration                       : 2 h 58 min
Bit rate                       : 96.0 kb/s
Channel(s)                     : 2 channels
Channel positions              : Front: L R
Sampling rate                  : 48.0 kHz
Frame rate                     : 46.875 FPS (1024 SPF)
Compression mode               : Lossy
Delay relative to video        : -21 ms
Stream size                    : 123 MiB (6%)
Title                          : GOPI SAHI
Language                       : English
Default                        : No
Forced                         : No

Text
ID                             : 4
Format                         : PGS
Muxing mode                    : zlib
Codec ID                       : S_HDMV/PGS
Codec ID/Info                  : Picture based subtitle format used on BDs/HD-DVDs
Duration                       : 2 h 57 min
Bit rate                       : 45.0 kb/s
Count of elements              : 4406
Stream size                    : 57.1 MiB (3%)
Title                          : GOPI SAHI
Language                       : English
Default                        : Yes
Forced                         : No