Alexander 2004 Theatrical Cut x264 720p Esub BluRay Dual Audio English Hindi GOPI SAHI

Alexander (2004)

 
 
Alexander, the King of Macedonia and one of the greatest army leaders in the history of warfare, conquers much of the known world.

Director:

Oliver Stone

5.6/10
159,473

Directed byOliver Stone
Produced by
Screenplay by
Based onAlexander the Great
by Robin Lane Fox
Starring
Music byVangelis
CinematographyRodrigo Prieto
Edited by
  • Thomas J. Nordberg
  • Yann Hervé
  • Alex Marquez
Production
companies
Distributed by
Release date
  • 16 November 2004 (Hollywood)
  • 24 November 2004 (United States)
  • 23 December 2004 (Germany/Netherlands)
  • 5 January 2005 (France)
  • 14 January 2005 (Italy)
Running time
175 minutes[1]
Country
  • Germany
  • France
  • Italy
  • Netherlands
  • United Kingdom
  • United States[2]
LanguageEnglish
Budget$155 million[3]
Box office$167.3 million[3]

Format                         : Matroska
Format version                 : Version 4
File size                      : 1.37 GiB
Duration                       : 2 h 55 min
Overall bit rate               : 1 114 kb/s
Movie name                     : Alexander 2004 Theatrical Cut GOPI SAHI
Encoded date                   : UTC 2020-06-06 09:06:22

Video
ID                             : 1
Format                         : AVC
Format/Info                    : Advanced Video Codec
Format profile                 : [email protected]
Format settings                : CABAC / 5 Ref Frames
Format settings, CABAC         : Yes
Format settings, Reference fra : 5 frames
Codec ID                       : V_MPEG4/ISO/AVC
Duration                       : 2 h 55 min
Bit rate                       : 899 kb/s
Width                          : 1 280 pixels
Height                         : 544 pixels
Display aspect ratio           : 2.35:1
Frame rate mode                : Constant
Frame rate                     : 23.976 (24000/1001) FPS
Color space                    : YUV
Chroma subsampling             : 4:2:0
Bit depth                      : 8 bits
Scan type                      : Progressive
Bits/(Pixel*Frame)             : 0.054
Stream size                    : 1.10 GiB (81%)
Title                          : GOPI SAHI
Writing library                : x264 core 157 r2935 545de2f

Audio #1
ID                             : 2
Format                         : AAC LC
Format/Info                    : Advanced Audio Codec Low Complexity
Codec ID                       : A_AAC-2
Duration                       : 2 h 55 min
Bit rate                       : 96.0 kb/s
Channel(s)                     : 2 channels
Channel layout                 : L R
Sampling rate                  : 48.0 kHz
Frame rate                     : 46.875 FPS (1024 SPF)
Compression mode               : Lossy
Delay relative to video        : -21 ms
Stream size                    : 121 MiB (9%)
Title                          : GOPI SAHI
Language                       : Hindi
Default                        : Yes
Forced                         : No

Audio #2
ID                             : 3
Format                         : AAC LC
Format/Info                    : Advanced Audio Codec Low Complexity
Codec ID                       : A_AAC-2
Duration                       : 2 h 55 min
Bit rate                       : 96.0 kb/s
Channel(s)                     : 2 channels
Channel layout                 : L R
Sampling rate                  : 48.0 kHz
Frame rate                     : 46.875 FPS (1024 SPF)
Compression mode               : Lossy
Delay relative to video        : -21 ms
Stream size                    : 121 MiB (9%)
Title                          : GOPI SAHI
Language                       : English
Default                        : No
Forced                         : No

Text
ID                             : 4
Format                         : PGS
Muxing mode                    : zlib
Codec ID                       : S_HDMV/PGS
Codec ID/Info                  : Picture based subtitle format used on BDs/HD-DVDs
Duration                       : 2 h 44 min
Bit rate                       : 48.6 kb/s
Count of elements              : 3406
Stream size                    : 57.2 MiB (4%)
Title                          : GOPI SAHI
Language                       : English
Default                        : Yes
Forced                         : No