Aarya 2020 x264 720p Hotstar Hindi S01 E01 09 GOPI SAHI


When her world suddenly turns upside down, will Aarya become the very thing she hated?How far will she go to survive and protect her family?

8.6/10
5

Format                         : Matroska
Format version                 : Version 4 / Version 2
File size                      : 269 MiB
Duration                       : 51 min 34 s
Overall bit rate               : 728 kb/s
Encoded date                   : UTC 2020-06-19 02:05:44

Video
ID                             : 1
Format                         : AVC
Format/Info                    : Advanced Video Codec
Format profile                 : [email protected]
Format settings, CABAC         : Yes
Format settings, RefFrames     : 4 frames
Codec ID                       : V_MPEG4/ISO/AVC
Duration                       : 51 min 34 s
Bit rate                       : 670 kb/s
Width                          : 1 274 pixels
Height                         : 720 pixels
Display aspect ratio           : 16:9
Frame rate mode                : Constant
Frame rate                     : 25.000 FPS
Color space                    : YUV
Chroma subsampling             : 4:2:0
Bit depth                      : 8 bits
Scan type                      : Progressive
Bits/(Pixel*Frame)             : 0.029
Stream size                    : 247 MiB (92%)
Writing library                : x264 core 155 r2917 0a84d98


Audio
Format                         : AAC
Codec ID                       : A_AAC
Duration                       : 51 min 34 s
Bit rate                       : 56.0 kb/s
Channel(s)                     : 2 channels
Channel positions              : Front: L R
Sampling rate                  : 44.1 kHz
Frame rate                     : 43.066 FPS (1024 SPF)
Compression mode               : Lossy
Stream size                    : 20.6 MiB (8%)
Language                       : Hindi





ZIPER LINKS SIZE  2.22 GB