8 X-Men Deadpool 2016 x264 720p Esub BluRay Dual Audio English Hindi Sadeemrdp GOPI SAHI

Deadpool (2016)

 
A wisecracking mercenary gets experimented on and becomes immortal but ugly, and sets out to track down the man who ruined his looks.

Director:

Tim Miller

8.0/10
872,776
Directed byTim Miller
Produced by
Written by
Based on
Starring
Music byTom Holkenborg
CinematographyKen Seng
Edited byJulian Clarke
Production
company
Distributed by20th Century Fox
Release date
  • February 8, 2016 (Le Grand Rex)
  • February 12, 2016 (United States)
Running time
108 minutes[2]
CountryUnited States
LanguageEnglish
Budget$58 million[3]
Box office$782.6 million[3]


Format                         : Matroska
Format version                 : Version 4
File size                      : 886 MiB
Duration                       : 1 h 48 min
Overall bit rate               : 1 145 kb/s
Movie name                     : 8 X-Men Deadpool 2016 GOPI SAHI
Encoded date                   : UTC 2020-06-01 16:35:01

Video
ID                             : 1
Format                         : AVC
Format/Info                    : Advanced Video Codec
Format profile                 : [email protected]
Format settings                : CABAC / 5 Ref Frames
Format settings, CABAC         : Yes
Format settings, Reference fra : 5 frames
Codec ID                       : V_MPEG4/ISO/AVC
Duration                       : 1 h 48 min
Bit rate                       : 899 kb/s
Width                          : 1 280 pixels
Height                         : 534 pixels
Display aspect ratio           : 2.40:1
Frame rate mode                : Constant
Frame rate                     : 23.976 (24000/1001) FPS
Color space                    : YUV
Chroma subsampling             : 4:2:0
Bit depth                      : 8 bits
Scan type                      : Progressive
Bits/(Pixel*Frame)             : 0.055
Stream size                    : 695 MiB (78%)
Title                          : GOPI SAHI
Writing library                : x264 core 157 r2935 545de2f

Audio #1
ID                             : 2
Format                         : AAC LC
Format/Info                    : Advanced Audio Codec Low Complexity
Codec ID                       : A_AAC-2
Duration                       : 1 h 48 min
Bit rate                       : 96.0 kb/s
Channel(s)                     : 2 channels
Channel layout                 : L R
Sampling rate                  : 48.0 kHz
Frame rate                     : 46.875 FPS (1024 SPF)
Compression mode               : Lossy
Delay relative to video        : -21 ms
Stream size                    : 74.5 MiB (8%)
Title                          : GOPI SAHI
Language                       : Hindi
Default                        : Yes
Forced                         : No

Audio #2
ID                             : 3
Format                         : AAC LC
Format/Info                    : Advanced Audio Codec Low Complexity
Codec ID                       : A_AAC-2
Duration                       : 1 h 48 min
Bit rate                       : 96.0 kb/s
Channel(s)                     : 2 channels
Channel layout                 : L R
Sampling rate                  : 48.0 kHz
Frame rate                     : 46.875 FPS (1024 SPF)
Compression mode               : Lossy
Delay relative to video        : -21 ms
Stream size                    : 74.5 MiB (8%)
Title                          : GOPI SAHI
Language                       : English
Default                        : No
Forced                         : No

Text #1
ID                             : 4
Format                         : PGS
Muxing mode                    : zlib
Codec ID                       : S_HDMV/PGS
Codec ID/Info                  : Picture based subtitle format used on BDs/HD-DVDs
Duration                       : 1 h 47 min
Bit rate                       : 29.8 kb/s
Count of elements              : 2848
Stream size                    : 22.8 MiB (3%)
Title                          : GOPI SAHI
Language                       : Hindi
Default                        : Yes
Forced                         : Yes

Text #2
ID                             : 5
Format                         : PGS
Muxing mode                    : zlib
Codec ID                       : S_HDMV/PGS
Codec ID/Info                  : Picture based subtitle format used on BDs/HD-DVDs
Duration                       : 1 h 44 min
Bit rate                       : 36.0 kb/s
Count of elements              : 2766
Stream size                    : 27.1 MiB (3%)
Title                          : GOPI SAHI
Language                       : English
Default                        : No
Forced                         : No

Text #3
ID                             : 6
Format                         : PGS
Muxing mode                    : zlib
Codec ID                       : S_HDMV/PGS
Codec ID/Info                  : Picture based subtitle format used on BDs/HD-DVDs
Duration                       : 1 s 918 ms
Bit rate                       : 61.5 kb/s
Count of elements              : 2
Stream size                    : 14.4 KiB (0%)
Title                          : GOPI SAHI
Language                       : English
Default                        : No
Forced                         : No

Text #4
ID                             : 7
Format                         : PGS
Muxing mode                    : zlib
Codec ID                       : S_HDMV/PGS
Codec ID/Info                  : Picture based subtitle format used on BDs/HD-DVDs
Duration                       : 1 h 47 min
Bit rate                       : 41.9 kb/s
Count of elements              : 2852
Stream size                    : 32.1 MiB (4%)
Title                          : GOPI SAHI
Language                       : Tamil
Default                        : No
Forced                         : No

Text #5
ID                             : 8
Format                         : PGS
Muxing mode                    : zlib
Codec ID                       : S_HDMV/PGS
Codec ID/Info                  : Picture based subtitle format used on BDs/HD-DVDs
Duration                       : 1 h 47 min
Bit rate                       : 33.0 kb/s
Count of elements              : 2848
Stream size                    : 25.3 MiB (3%)
Title                          : GOPI SAHI
Language                       : Telugu
Default                        : No
Forced                         : No

Menu
00:00:00.000                   : :Chapter 1
00:03:04.726                   : :Chapter 2
00:05:53.019                   : :Chapter 3
00:09:30.820                   : :Chapter 4
00:13:19.132                   : :Chapter 5
00:16:48.716                   : :Chapter 6
00:20:12.545                   : :Chapter 7
00:22:06.534                   : :Chapter 8
00:27:09.628                   : :Chapter 9
00:31:58.959                   : :Chapter 10
00:36:51.710                   : :Chapter 11
00:41:06.172                   : :Chapter 12
00:44:45.808                   : :Chapter 13
00:46:56.605                   : :Chapter 14
00:50:11.091                   : :Chapter 15
00:53:18.028                   : :Chapter 16
00:55:33.038                   : :Chapter 17
00:59:07.753                   : :Chapter 18
01:03:05.240                   : :Chapter 19
01:07:06.439                   : :Chapter 20
01:09:15.568                   : :Chapter 21
01:12:29.720                   : :Chapter 22
01:16:46.393                   : :Chapter 23
01:20:43.714                   : :Chapter 24
01:25:53.398                   : :Chapter 25
01:31:03.792                   : :Chapter 26
01:34:46.973                   : :Chapter 27
01:39:52.820                   : :Chapter 28