7 X-Men - Days Of Future Past 2014 Rogue Cut x264 720p Esub BluRay Dual Audio English Hindi Sadeemrdp GOPI SAHI

X-Men: Days of Future Past (2014)


The X-Men send Wolverine to the past in a desperate effort to change history and prevent an event that results in doom for both humans and mutants.

Director:

Bryan Singer

Writers:

Simon Kinberg (screenplay by), Jane Goldman (story by) |2 more credits »


8.0/10


Directed byBryan Singer
Produced by
Screenplay bySimon Kinberg
Story by
Based on
Starring
Music byJohn Ottman
CinematographyNewton Thomas Sigel
Edited byJohn Ottman
Production
companies
Distributed by20th Century Fox
Release date
Running time
131 minutes[1]
Country
  • United Kingdom[2]
  • United States[2]
LanguageEnglish
Budget$200–220 million[3][4][5]
Box office$747.9 million[3]



Format                         : Matroska
Format version                 : Version 4
File size                      : 1.15 GiB
Duration                       : 2 h 28 min
Overall bit rate               : 1 103 kb/s
Movie name                     : 7 X-Men: Days of Future Past 2014 Rogue Cut GOPI SAHI

Video
ID                             : 1
Format                         : AVC
Format/Info                    : Advanced Video Codec
Format profile                 : [email protected]
Format settings                : CABAC / 5 Ref Frames
Format settings, CABAC         : Yes
Format settings, Reference fra : 5 frames
Codec ID                       : V_MPEG4/ISO/AVC
Duration                       : 2 h 28 min
Bit rate                       : 899 kb/s
Width                          : 1 280 pixels
Height                         : 534 pixels
Display aspect ratio           : 2.40:1
Frame rate mode                : Constant
Frame rate                     : 23.976 (24000/1001) FPS
Color space                    : YUV
Chroma subsampling             : 4:2:0
Bit depth                      : 8 bits
Scan type                      : Progressive
Bits/(Pixel*Frame)             : 0.055
Stream size                    : 957 MiB (82%)
Title                          : GOPI SAHI
Writing library                : x264 core 157 r2935 545de2f

Audio #1
ID                             : 2
Format                         : AAC LC
Format/Info                    : Advanced Audio Codec Low Complexity
Codec ID                       : A_AAC-2
Duration                       : 2 h 28 min
Bit rate                       : 96.0 kb/s
Channel(s)                     : 2 channels
Channel layout                 : L R
Sampling rate                  : 48.0 kHz
Frame rate                     : 46.875 FPS (1024 SPF)
Compression mode               : Lossy
Delay relative to video        : -21 ms
Stream size                    : 102 MiB (9%)
Title                          : GOPI SAHI
Language                       : Hindi
Default                        : Yes
Forced                         : No

Audio #2
ID                             : 3
Format                         : AAC LC
Format/Info                    : Advanced Audio Codec Low Complexity
Codec ID                       : A_AAC-2
Duration                       : 2 h 28 min
Bit rate                       : 96.0 kb/s
Channel(s)                     : 2 channels
Channel layout                 : L R
Sampling rate                  : 48.0 kHz
Frame rate                     : 46.875 FPS (1024 SPF)
Compression mode               : Lossy
Delay relative to video        : -21 ms
Stream size                    : 102 MiB (9%)
Title                          : GOPI SAHI
Language                       : English
Default                        : No
Forced                         : No

Text #1
ID                             : 4
Format                         : PGS
Muxing mode                    : zlib
Codec ID                       : S_HDMV/PGS
Codec ID/Info                  : Picture based subtitle format used on BDs/HD-DVDs
Duration                       : 2 h 27 min
Bit rate                       : 25.8 kb/s
Count of elements              : 2908
Stream size                    : 27.1 MiB (2%)
Title                          : GOPI SAHI
Language                       : English
Default                        : Yes
Forced                         : Yes

Text #2
ID                             : 5
Format                         : PGS
Muxing mode                    : zlib
Codec ID                       : S_HDMV/PGS
Codec ID/Info                  : Picture based subtitle format used on BDs/HD-DVDs
Duration                       : 2 h 28 min
Bit rate                       : 411 b/s
Count of elements              : 118
Stream size                    : 447 KiB (0%)
Title                          : GOPI SAHI
Language                       : English
Default                        : No
Forced                         : No

Menu
00:00:00.000                   : :Chapter 1
00:03:33.630                   : :Chapter 2
00:08:04.734                   : :Chapter 3
00:10:34.217                   : :Chapter 4
00:15:11.411                   : :Chapter 5
00:18:44.290                   : :Chapter 6
00:22:43.529                   : :Chapter 7
00:24:38.769                   : :Chapter 8
00:29:05.744                   : :Chapter 9
00:33:03.440                   : :Chapter 10
00:37:11.896                   : :Chapter 11
00:38:49.828                   : :Chapter 12
00:41:06.923                   : :Chapter 13
00:43:50.336                   : :Chapter 14
00:50:05.377                   : :Chapter 15
00:52:07.082                   : :Chapter 16
00:55:11.391                   : :Chapter 17
00:57:56.348                   : :Chapter 18
01:01:04.661                   : :Chapter 19
01:04:01.421                   : :Chapter 20
01:06:39.829                   : :Chapter 21
01:10:22.844                   : :Chapter 22
01:13:00.459                   : :Chapter 23
01:16:28.334                   : :Chapter 24
01:18:48.724                   : :Chapter 25
01:20:44.590                   : :Chapter 26
01:22:46.962                   : :Chapter 27
01:28:07.574                   : :Chapter 28
01:31:19.057                   : :Chapter 29
01:33:50.959                   : :Chapter 30
01:39:22.373                   : :Chapter 31
01:42:10.291                   : :Chapter 32
01:44:32.224                   : :Chapter 33
01:49:13.547                   : :Chapter 34
01:51:00.863                   : :Chapter 35
01:54:54.304                   : :Chapter 36
01:59:15.940                   : :Chapter 37
02:02:13.743                   : :Chapter 38
02:04:30.505                   : :Chapter 39
02:08:16.230                   : :Chapter 40
02:13:27.583                   : :Chapter 41
02:16:57.251                   : :Chapter 42
02:19:19.810                   : :Chapter 43
02:27:34.012                   : :Chapter 44