5 X-Men - First Class 2011 x264 720p Esub BluRay Dual Audio English Hindi Sadeemrdp GOPI SAHI

X-Men: First Class (2011)

X: First Class (original title)
 
In the 1960s, superpowered humans Charles Xavier and Erik Lensherr work together to find others like them, but Erik's vengeful pursuit of an ambitious mutant who ruined his life causes a schism to divide them.

Director:

Matthew Vaughn

Writers:

Ashley Miller (screenplay by) (as Ashley Edward Miller), Zack Stentz (screenplay by) |4 more credits »

7.7/10


Directed byMatthew Vaughn
Produced by
Screenplay by
Story by
Based on
Starring
Music byHenry Jackman
CinematographyJohn Mathieson
Edited by
Production
company
Distributed by20th Century Fox
Release date
  • May 25, 2011 (Ziegfeld Theatre)
  • June 1, 2011 (United Kingdom)
  • June 3, 2011 (United States)
Running time
132 minutes[1]
Country
LanguageEnglish
Budget$140–160 million[5][6]
Box office$353.6 million[6]




Format                         : Matroska
Format version                 : Version 4
File size                      : 1.05 GiB
Duration                       : 2 h 11 min
Overall bit rate               : 1 136 kb/s
Movie name                     : X-Men: First Class 2011 GOPI SAHI
Encoded date                   : UTC 2020-05-31 21:50:10
Writing application            : mkvmerge v46.0.0 ('No Deeper Escape') 32-bit
Writing library                : libebml v1.3.10 + libmatroska v1.5.2

Video
ID                             : 1
Format                         : AVC
Format/Info                    : Advanced Video Codec
Format profile                 : [email protected]
Format settings                : CABAC / 5 Ref Frames
Format settings, CABAC         : Yes
Format settings, Reference fra : 5 frames
Codec ID                       : V_MPEG4/ISO/AVC
Duration                       : 2 h 11 min
Bit rate                       : 899 kb/s
Width                          : 1 280 pixels
Height                         : 544 pixels
Display aspect ratio           : 2.35:1
Frame rate mode                : Constant
Frame rate                     : 23.976 (24000/1001) FPS
Color space                    : YUV
Chroma subsampling             : 4:2:0
Bit depth                      : 8 bits
Scan type                      : Progressive
Bits/(Pixel*Frame)             : 0.054
Stream size                    : 847 MiB (79%)
Title                          : GOPI SAHI
Writing library                : x264 core 157 r2935 545de2f

Audio #1
ID                             : 2
Format                         : AAC LC
Format/Info                    : Advanced Audio Codec Low Complexity
Codec ID                       : A_AAC-2
Duration                       : 2 h 11 min
Bit rate                       : 96.0 kb/s
Channel(s)                     : 2 channels
Channel layout                 : L R
Sampling rate                  : 48.0 kHz
Frame rate                     : 46.875 FPS (1024 SPF)
Compression mode               : Lossy
Delay relative to video        : -21 ms
Stream size                    : 90.7 MiB (8%)
Title                          : GOPI SAHI
Language                       : Hindi
Default                        : Yes
Forced                         : No

Audio #2
ID                             : 3
Format                         : AAC LC
Format/Info                    : Advanced Audio Codec Low Complexity
Codec ID                       : A_AAC-2
Duration                       : 2 h 11 min
Bit rate                       : 96.0 kb/s
Channel(s)                     : 2 channels
Channel layout                 : L R
Sampling rate                  : 48.0 kHz
Frame rate                     : 46.875 FPS (1024 SPF)
Compression mode               : Lossy
Delay relative to video        : -21 ms
Stream size                    : 90.8 MiB (8%)
Title                          : GOPI SAHI
Language                       : English
Default                        : No
Forced                         : No

Text #1
ID                             : 4
Format                         : PGS
Muxing mode                    : zlib
Codec ID                       : S_HDMV/PGS
Codec ID/Info                  : Picture based subtitle format used on BDs/HD-DVDs
Duration                       : 2 h 10 min
Bit rate                       : 25.0 kb/s
Count of elements              : 2876
Stream size                    : 23.4 MiB (2%)
Title                          : GOPI SAHI
Language                       : Hindi
Default                        : Yes
Forced                         : Yes

Text #2
ID                             : 5
Format                         : PGS
Muxing mode                    : zlib
Codec ID                       : S_HDMV/PGS
Codec ID/Info                  : Picture based subtitle format used on BDs/HD-DVDs
Duration                       : 2 h 10 min
Bit rate                       : 30.2 kb/s
Count of elements              : 2822
Stream size                    : 28.2 MiB (3%)
Title                          : GOPI SAHI
Language                       : English
Default                        : No
Forced                         : No

Text #3
ID                             : 6
Format                         : PGS
Muxing mode                    : zlib
Codec ID                       : S_HDMV/PGS
Codec ID/Info                  : Picture based subtitle format used on BDs/HD-DVDs
Duration                       : 2 h 7 min
Bit rate                       : 2 618 b/s
Count of elements              : 304
Stream size                    : 2.38 MiB (0%)
Title                          : GOPI SAHI
Language                       : English
Default                        : No
Forced                         : No

Text #4
ID                             : 7
Format                         : PGS
Muxing mode                    : zlib
Codec ID                       : S_HDMV/PGS
Codec ID/Info                  : Picture based subtitle format used on BDs/HD-DVDs
Duration                       : 2 h 10 min
Bit rate                       : 29.7 kb/s
Count of elements              : 2874
Stream size                    : 27.8 MiB (3%)
Title                          : GOPI SAHI
Language                       : Tamil
Default                        : No
Forced                         : No

Text #5
ID                             : 8
Format                         : PGS
Muxing mode                    : zlib
Codec ID                       : S_HDMV/PGS
Codec ID/Info                  : Picture based subtitle format used on BDs/HD-DVDs
Duration                       : 2 h 10 min
Bit rate                       : 30.9 kb/s
Count of elements              : 2886
Stream size                    : 28.9 MiB (3%)
Title                          : GOPI SAHI
Language                       : Telugu
Default                        : No
Forced                         : No

Menu #1
00:00:00.000                   : :Chapter 1
00:04:21.553                   : :Chapter 2
00:09:33.239                   : :Chapter 3
00:14:03.426                   : :Chapter 4
00:16:08.176                   : :Chapter 5
00:22:10.830                   : :Chapter 6
00:27:11.046                   : :Chapter 7
00:28:46.350                   : :Chapter 8
00:31:33.016                   : :Chapter 9
00:36:07.707                   : :Chapter 10
00:40:12.660                   : :Chapter 11
00:44:16.487                   : :Chapter 12
00:50:05.753                   : :Chapter 13
00:54:01.029                   : :Chapter 14
01:01:07.414                   : :Chapter 15
01:08:17.927                   : :Chapter 16
01:11:51.098                   : :Chapter 17
01:14:06.734                   : :Chapter 18
01:20:07.177                   : :Chapter 19
01:23:43.227                   : :Chapter 20
01:27:35.834                   : :Chapter 21
01:28:51.243                   : :Chapter 22
01:31:25.063                   : :Chapter 23
01:33:33.900                   : :Chapter 24
01:37:54.410                   : :Chapter 25
01:39:55.573                   : :Chapter 26
01:43:37.962                   : :Chapter 27
01:47:44.208                   : :Chapter 28
01:52:38.543                   : :Chapter 29
01:56:44.623                   : :Chapter 30
02:01:26.780                   : :Chapter 31
02:04:24.332                   : :Chapter 32

Menu #2
00:00:00.000                   : en:Chapter 01
00:04:21.553                   : en:Chapter 02
00:09:33.156                   : en:Chapter 03
00:14:03.426                   : en:Chapter 04
00:16:08.176                   : en:Chapter 05
00:22:10.829                   : en:Chapter 06
00:27:11.046                   : en:Chapter 07
00:28:46.350                   : en:Chapter 08
00:31:32.891                   : en:Chapter 09
00:36:07.540                   : en:Chapter 10
00:40:12.660                   : en:Chapter 11
00:44:16.487                   : en:Chapter 12
00:50:05.753                   : en:Chapter 13
00:54:00.863                   : en:Chapter 14
01:01:07.414                   : en:Chapter 15
01:08:17.927                   : en:Chapter 16
01:11:51.098                   : en:Chapter 17
01:14:06.525                   : en:Chapter 18
01:20:07.052                   : en:Chapter 19
01:23:43.227                   : en:Chapter 20
01:27:35.834                   : en:Chapter 21
01:28:51.243                   : en:Chapter 22
01:31:24.979                   : en:Chapter 23
01:33:33.900                   : en:Chapter 24
01:37:54.410                   : en:Chapter 25
01:39:55.198                   : en:Chapter 26
01:43:37.962                   : en:Chapter 27
01:47:44.166                   : en:Chapter 28
01:52:38.460                   : en:Chapter 29
01:56:44.623                   : en:Chapter 30
02:01:26.696                   : en:Chapter 31
02:04:24.248                   : en:Chapter 32