4 X-Men Origins - Wolverine 2009 x264 720p Esub BluRay Dual Audio English Hindi Sadeemrdp GOPI SAHI

X-Men Origins: Wolverine (2009)

The early years of James Logan, featuring his rivalry with his brother Victor Creed, his service in the special forces team Weapon X, and his experimentation into the metal-lined mutant Wolverine.

Director:

Gavin Hood

Writers:

David Benioff (screenplay), Skip Woods (screenplay)
6.6/10
456,051

Directed byGavin Hood
Produced by
Screenplay by
Based on
Starring
Music byHarry Gregson-Williams
CinematographyDonald McAlpine
Edited by
  • Nicolas De Toth
  • Megan Gill
Production
companies
Distributed by20th Century Fox
Release date
  • April 9, 2009 (Sydney)
  • May 1, 2009 (United States)
Running time
107 minutes
CountryUnited States[1][2]
LanguageEnglish
Budget$150 million[3]
Box office$373.1 million[3]


Format                         : Matroska
Format version                 : Version 4
File size                      : 852 MiB
Duration                       : 1 h 47 min
Overall bit rate               : 1 109 kb/s
Movie name                     : 4 X-Men Origins: Wolverine 2009 GOPI SAHI
Encoded date                   : UTC 2020-05-31 22:57:25
Writing application            : mkvmerge v46.0.0 ('No Deeper Escape') 32-bit
Writing library                : libebml v1.3.10 + libmatroska v1.5.2

Video
ID                             : 1
Format                         : AVC
Format/Info                    : Advanced Video Codec
Format profile                 : [email protected]
Format settings                : CABAC / 5 Ref Frames
Format settings, CABAC         : Yes
Format settings, Reference fra : 5 frames
Codec ID                       : V_MPEG4/ISO/AVC
Duration                       : 1 h 47 min
Bit rate                       : 899 kb/s
Width                          : 1 280 pixels
Height                         : 546 pixels
Display aspect ratio           : 2.35:1
Frame rate mode                : Constant
Frame rate                     : 23.976 (24000/1001) FPS
Color space                    : YUV
Chroma subsampling             : 4:2:0
Bit depth                      : 8 bits
Scan type                      : Progressive
Bits/(Pixel*Frame)             : 0.054
Stream size                    : 690 MiB (81%)
Title                          : GOPI SAHI
Writing library                : x264 core 157 r2935 545de2f

Audio #1
ID                             : 2
Format                         : AAC LC
Format/Info                    : Advanced Audio Codec Low Complexity
Codec ID                       : A_AAC-2
Duration                       : 1 h 47 min
Bit rate                       : 96.0 kb/s
Channel(s)                     : 2 channels
Channel layout                 : L R
Sampling rate                  : 48.0 kHz
Frame rate                     : 46.875 FPS (1024 SPF)
Compression mode               : Lossy
Delay relative to video        : -21 ms
Stream size                    : 74.0 MiB (9%)
Title                          : GOPI SAHI
Language                       : Hindi
Default                        : Yes
Forced                         : No

Audio #2
ID                             : 3
Format                         : AAC LC
Format/Info                    : Advanced Audio Codec Low Complexity
Codec ID                       : A_AAC-2
Duration                       : 1 h 47 min
Bit rate                       : 96.0 kb/s
Channel(s)                     : 2 channels
Channel layout                 : L R
Sampling rate                  : 48.0 kHz
Frame rate                     : 46.875 FPS (1024 SPF)
Compression mode               : Lossy
Delay relative to video        : -21 ms
Stream size                    : 74.1 MiB (9%)
Title                          : GOPI SAHI
Language                       : English
Default                        : No
Forced                         : No

Text #1
ID                             : 4
Format                         : PGS
Muxing mode                    : zlib
Codec ID                       : S_HDMV/PGS
Codec ID/Info                  : Picture based subtitle format used on BDs/HD-DVDs
Duration                       : 1 h 40 min
Bit rate                       : 23.6 kb/s
Count of elements              : 1684
Stream size                    : 17.0 MiB (2%)
Title                          : GOPI SAHI
Language                       : English
Default                        : Yes
Forced                         : Yes

Text #2
ID                             : 5
Format                         : PGS
Muxing mode                    : zlib
Codec ID                       : S_HDMV/PGS
Codec ID/Info                  : Picture based subtitle format used on BDs/HD-DVDs
Duration                       : 1 h 46 min
Bit rate                       : 26.2 kb/s
Count of elements              : 2214
Stream size                    : 19.9 MiB (2%)
Title                          : GOPI SAHI
Language                       : English
Default                        : No
Forced                         : No

Menu
00:00:00.000                   : :My Son
00:03:21.201                   : :Main Titles/Invincible Warriors
00:07:49.135                   : :Recruitment
00:10:28.419                   : :Special Team
00:14:09.807                   : :Enough!
00:17:50.111                   : :New Life
00:19:31.545                   : :Show's Over
00:25:55.137                   : :Powers of Persuasion
00:28:17.988                   : :The Moon and Her Lover
00:32:28.572                   : :Out For Blood
00:37:51.311                   : :Weapon X
00:45:03.367                   : :Kindness to Strangers
00:49:43.814                   : :Blow Him to Bits
00:56:28.635                   : :Our Own Kind
00:59:41.828                   : :Boxing With the Blob
01:02:17.651                   : :Mutant Capture
01:06:12.177                   : :Gambit
01:09:54.524                   : :Confronting Victor
01:12:54.704                   : :Preemptive Action
01:16:19.742                   : :Played for a Fool
01:21:29.635                   : :Animal Rage
01:25:57.778                   : :Weapon XI
01:28:55.121                   : :Common Enemy
01:32:06.813                   : :Always Brothers
01:33:37.195                   : :Point Blank
01:37:15.538                   : :What's My Name?
01:40:22.141                   : :End Titles/Under Arrest
01:41:26.122                   : :End Titles/Back From the Dead