3 X-Men - The Last Stand 2006 x264 720p Esub BluRay Dual Audio English Hindi Sadeemrdp GOPI SAHI

X-Men: The Last Stand (2006)

 
The human government develops a cure for mutations, and Jean Gray becomes a darker uncontrollable persona called the Phoenix who allies with Magneto, causing escalation into an all-out battle for the X-Men.

Director:

Brett Ratner
6.7/10
471,862


Format                         : Matroska
Format version                 : Version 4
File size                      : 835 MiB
Duration                       : 1 h 44 min
Overall bit rate               : 1 122 kb/s
Movie name                     : X-Men: The Last Stand 2006 GOPI SAHI
Encoded date                   : UTC 2020-05-31 21:53:22
Writing application            : mkvmerge v46.0.0 ('No Deeper Escape') 32-bit
Writing library                : libebml v1.3.10 + libmatroska v1.5.2

Video
ID                             : 1
Format                         : AVC
Format/Info                    : Advanced Video Codec
Format profile                 : [email protected]
Format settings                : CABAC / 5 Ref Frames
Format settings, CABAC         : Yes
Format settings, Reference fra : 5 frames
Codec ID                       : V_MPEG4/ISO/AVC
Duration                       : 1 h 44 min
Bit rate                       : 899 kb/s
Width                          : 1 280 pixels
Height                         : 534 pixels
Display aspect ratio           : 2.40:1
Frame rate mode                : Constant
Frame rate                     : 23.976 (24000/1001) FPS
Color space                    : YUV
Chroma subsampling             : 4:2:0
Bit depth                      : 8 bits
Scan type                      : Progressive
Bits/(Pixel*Frame)             : 0.055
Stream size                    : 669 MiB (80%)
Title                          : GOPI SAHI
Writing library                : x264 core 157 r2935 545de2f

Audio #1
ID                             : 2
Format                         : AAC LC
Format/Info                    : Advanced Audio Codec Low Complexity
Codec ID                       : A_AAC-2
Duration                       : 1 h 44 min
Bit rate                       : 96.0 kb/s
Channel(s)                     : 2 channels
Channel layout                 : L R
Sampling rate                  : 48.0 kHz
Frame rate                     : 46.875 FPS (1024 SPF)
Compression mode               : Lossy
Delay relative to video        : -21 ms
Stream size                    : 71.9 MiB (9%)
Title                          : GOPI SAHI
Language                       : Hindi
Default                        : Yes
Forced                         : No

Audio #2
ID                             : 3
Format                         : AAC LC
Format/Info                    : Advanced Audio Codec Low Complexity
Codec ID                       : A_AAC-2
Duration                       : 1 h 44 min
Bit rate                       : 96.0 kb/s
Channel(s)                     : 2 channels
Channel layout                 : L R
Sampling rate                  : 48.0 kHz
Frame rate                     : 46.875 FPS (1024 SPF)
Compression mode               : Lossy
Delay relative to video        : 2 s 64 ms
Stream size                    : 71.8 MiB (9%)
Title                          : GOPI SAHI
Language                       : English
Default                        : No
Forced                         : No

Text #1
ID                             : 4
Format                         : PGS
Muxing mode                    : zlib
Codec ID                       : S_HDMV/PGS
Codec ID/Info                  : Picture based subtitle format used on BDs/HD-DVDs
Duration                       : 1 h 42 min
Bit rate                       : 29.0 kb/s
Count of elements              : 1775
Stream size                    : 21.4 MiB (3%)
Title                          : GOPI SAHI
Language                       : English
Default                        : Yes
Forced                         : Yes

Text #2
ID                             : 5
Format                         : PGS
Muxing mode                    : zlib
Codec ID                       : S_HDMV/PGS
Codec ID/Info                  : Picture based subtitle format used on BDs/HD-DVDs
Duration                       : 1 h 43 min
Bit rate                       : 38.1 kb/s
Count of elements              : 1746
Stream size                    : 28.2 MiB (3%)
Title                          : GOPI SAHI
Language                       : English
Default                        : No
Forced                         : No

Menu
00:00:00.000                   : :Years Ago/Main Titles
00:05:17.275                   : :The Simulation
00:09:21.311                   : :Interrogating Mystique
00:12:19.405                   : :A Cure for Mystique
00:17:53.072                   : :The Rally
00:23:09.138                   : :Transformation
00:30:57.898                   : :Jean's Return
00:33:57.494                   : :Rescue and Abandonment
00:38:02.363                   : :Jean's True Power
00:43:48.167                   : :Out of Control
00:50:36.742                   : :Remembering the Professor
00:55:37.084                   : :Magneto's Army
00:58:02.938                   : :Saving Xavier's School
01:01:13.879                   : :Public Threat
01:03:56.750                   : :At Magneto's Camp
01:08:16.968                   : :Raid
01:10:40.570                   : :Final Stand
01:13:21.314                   : :Assault on Alcatraz
01:19:11.538                   : :Holding the Line
01:22:10.092                   : :Protecting the Cure
01:25:03.849                   : :One of Them
01:29:41.751                   : :Because of Love
01:34:25.743                   : :As They Should Be
01:36:02.590                   : :Powerless/End Titles