12 X-Men Dark Phoenix 2019 x264 720p Esub BluRay Dual Audio English Hindi Sadeemrdp GOPI SAHI

X-Men: Dark Phoenix (2019)

Dark Phoenix (original title)

Jean Grey begins to develop incredible powers that corrupt and turn her into a Dark Phoenix, causing the X-Men to decide if her life is worth more than all of humanity.

Director:

Simon Kinberg
5.8/10


Directed bySimon Kinberg
Produced by
Written bySimon Kinberg
Based on
Starring
Music byHans Zimmer
CinematographyMauro Fiore
Edited byLee Smith
Production
company
Distributed by20th Century Fox
Release date
Running time
114 minutes[1]
CountryUnited States
LanguageEnglish
Budget$200 million[2]
Box office$252.4 million[3]


Format                         : Matroska
Format version                 : Version 4
File size                      : 892 MiB
Duration                       : 1 h 53 min
Overall bit rate               : 1 094 kb/s
Movie name                     : Dark Phoenix 2019 GOPI SAHI

Video
ID                             : 1
Format                         : AVC
Format/Info                    : Advanced Video Codec
Format profile                 : [email protected]
Format settings                : CABAC / 5 Ref Frames
Format settings, CABAC         : Yes
Format settings, Reference fra : 5 frames
Codec ID                       : V_MPEG4/ISO/AVC
Duration                       : 1 h 53 min
Bit rate                       : 899 kb/s
Width                          : 1 280 pixels
Height                         : 536 pixels
Display aspect ratio           : 2.40:1
Frame rate mode                : Constant
Frame rate                     : 23.976 (24000/1001) FPS
Color space                    : YUV
Chroma subsampling             : 4:2:0
Bit depth                      : 8 bits
Scan type                      : Progressive
Bits/(Pixel*Frame)             : 0.055
Stream size                    : 732 MiB (82%)
Title                          : GOPI SAHI
Writing library                : x264 core 157 r2935 545de2f

Audio #1
ID                             : 2
Format                         : AAC LC
Format/Info                    : Advanced Audio Codec Low Complexity
Codec ID                       : A_AAC-2
Duration                       : 1 h 53 min
Bit rate                       : 96.0 kb/s
Channel(s)                     : 2 channels
Channel layout                 : L R
Sampling rate                  : 48.0 kHz
Frame rate                     : 46.875 FPS (1024 SPF)
Compression mode               : Lossy
Delay relative to video        : -21 ms
Stream size                    : 78.6 MiB (9%)
Title                          : GOPI SAHI
Language                       : Hindi
Default                        : Yes
Forced                         : No

Audio #2
ID                             : 3
Format                         : AAC LC
Format/Info                    : Advanced Audio Codec Low Complexity
Codec ID                       : A_AAC-2
Duration                       : 1 h 53 min
Bit rate                       : 96.0 kb/s
Channel(s)                     : 2 channels
Channel layout                 : L R
Sampling rate                  : 48.0 kHz
Frame rate                     : 46.875 FPS (1024 SPF)
Compression mode               : Lossy
Delay relative to video        : -21 ms
Stream size                    : 78.6 MiB (9%)
Title                          : GOPI SAHI
Language                       : English
Default                        : No
Forced                         : No

Menu
00:00:00.000                   : :00:00:00.000
00:03:28.875                   : :00:03:28.875
00:07:34.621                   : :00:07:34.621
00:11:42.202                   : :00:11:42.201
00:15:44.110                   : :00:15:44.110
00:18:37.408                   : :00:18:37.408
00:25:24.481                   : :00:25:24.481
00:31:40.357                   : :00:31:40.357
00:34:19.307                   : :00:34:19.307
00:40:07.447                   : :00:40:07.447
00:44:36.090                   : :00:44:36.090
00:49:07.778                   : :00:49:07.778
00:55:38.168                   : :00:55:38.168
00:58:57.409                   : :00:58:57.409
01:02:57.274                   : :01:02:57.190
01:10:40.111                   : :01:10:40.111
01:13:42.418                   : :01:13:42.418
01:19:33.477                   : :01:19:33.477
01:22:35.701                   : :01:22:35.701
01:25:49.102                   : :01:25:49.061
01:30:38.516                   : :01:30:38.350
01:32:48.354                   : :01:32:48.188
01:37:59.624                   : :01:37:59.624
01:45:01.128                   : :01:45:01.045