11 Deadpool 2 2018 Super Duper Cut x264 720p Esub BluRay Dual Audio English Hindi Sadeemrdp GOPI SAHI

Deadpool 2 (2018)

 
Foul-mouthed mutant mercenary Wade Wilson (a.k.a. Deadpool), brings together a team of fellow mutant rogues to protect a young boy with supernatural abilities from the brutal, time-traveling cyborg Cable.

Director:

David Leitch
7.7/10




Directed byDavid Leitch
Produced by
Written by
Based on
Starring
Music byTyler Bates
CinematographyJonathan Sela
Edited by
Production
company
Distributed by20th Century Fox
Release date
Running time
119 minutes
CountryUnited States
LanguageEnglish
Budget$110 million[2]
Box office$785.8 million[2]



Format                         : Matroska
Format version                 : Version 4
File size                      : 1.07 GiB
Duration                       : 2 h 13 min
Overall bit rate               : 1 148 kb/s
Movie name                     : 11 X-Men Deadpool 2 2018 Super Duper Cut GOPI SAHI

Video
ID                             : 1
Format                         : AVC
Format/Info                    : Advanced Video Codec
Format profile                 : [email protected]
Format settings                : CABAC / 5 Ref Frames
Format settings, CABAC         : Yes
Format settings, Reference fra : 5 frames
Codec ID                       : V_MPEG4/ISO/AVC
Duration                       : 2 h 13 min
Bit rate                       : 899 kb/s
Width                          : 1 280 pixels
Height                         : 536 pixels
Display aspect ratio           : 2.40:1
Frame rate mode                : Constant
Frame rate                     : 23.976 (24000/1001) FPS
Color space                    : YUV
Chroma subsampling             : 4:2:0
Bit depth                      : 8 bits
Scan type                      : Progressive
Bits/(Pixel*Frame)             : 0.055
Stream size                    : 861 MiB (78%)
Title                          : GOPI SAHI
Writing library                : x264 core 157 r2935 545de2f

Audio #1
ID                             : 2
Format                         : AAC LC
Format/Info                    : Advanced Audio Codec Low Complexity
Codec ID                       : A_AAC-2
Duration                       : 2 h 13 min
Bit rate                       : 96.0 kb/s
Channel(s)                     : 2 channels
Channel layout                 : L R
Sampling rate                  : 48.0 kHz
Frame rate                     : 46.875 FPS (1024 SPF)
Compression mode               : Lossy
Delay relative to video        : -21 ms
Stream size                    : 92.3 MiB (8%)
Title                          : GOPI SAHI
Language                       : Hindi
Default                        : Yes
Forced                         : No

Audio #2
ID                             : 3
Format                         : AAC LC
Format/Info                    : Advanced Audio Codec Low Complexity
Codec ID                       : A_AAC-2
Duration                       : 2 h 13 min
Bit rate                       : 96.0 kb/s
Channel(s)                     : 2 channels
Channel layout                 : L R
Sampling rate                  : 48.0 kHz
Frame rate                     : 46.875 FPS (1024 SPF)
Compression mode               : Lossy
Delay relative to video        : -21 ms
Stream size                    : 92.3 MiB (8%)
Title                          : GOPI SAHI
Language                       : English
Default                        : No
Forced                         : No

Text #1
ID                             : 4
Format                         : PGS
Muxing mode                    : zlib
Codec ID                       : S_HDMV/PGS
Codec ID/Info                  : Picture based subtitle format used on BDs/HD-DVDs
Duration                       : 2 h 13 min
Bit rate                       : 31.3 kb/s
Count of elements              : 3868
Stream size                    : 29.8 MiB (3%)
Title                          : GOPI SAHI
Language                       : Hindi
Default                        : Yes
Forced                         : Yes

Text #2
ID                             : 5
Format                         : PGS
Muxing mode                    : zlib
Codec ID                       : S_HDMV/PGS
Codec ID/Info                  : Picture based subtitle format used on BDs/HD-DVDs
Duration                       : 2 h 11 min
Bit rate                       : 39.4 kb/s
Count of elements              : 3752
Stream size                    : 37.1 MiB (3%)
Title                          : GOPI SAHI
Language                       : English
Default                        : No
Forced                         : No

Text #3
ID                             : 6
Format                         : PGS
Muxing mode                    : zlib
Codec ID                       : S_HDMV/PGS
Codec ID/Info                  : Picture based subtitle format used on BDs/HD-DVDs
Duration                       : 52 min 55 s
Bit rate                       : 117 b/s
Count of elements              : 8
Stream size                    : 45.5 KiB (0%)
Title                          : GOPI SAHI
Language                       : English
Default                        : No
Forced                         : No

Text #4
ID                             : 7
Format                         : PGS
Muxing mode                    : zlib
Codec ID                       : S_HDMV/PGS
Codec ID/Info                  : Picture based subtitle format used on BDs/HD-DVDs
Duration                       : 2 h 13 min
Bit rate                       : 44.3 kb/s
Count of elements              : 3873
Stream size                    : 42.2 MiB (4%)
Title                          : GOPI SAHI
Language                       : Tamil
Default                        : No
Forced                         : No

Text #5
ID                             : 8
Format                         : PGS
Muxing mode                    : zlib
Codec ID                       : S_HDMV/PGS
Codec ID/Info                  : Picture based subtitle format used on BDs/HD-DVDs
Duration                       : 2 h 13 min
Bit rate                       : 31.0 kb/s
Count of elements              : 3869
Stream size                    : 29.6 MiB (3%)
Title                          : GOPI SAHI
Language                       : Telugu
Default                        : No
Forced                         : No

Menu
00:00:00.000                   : :Chapter 1
00:02:31.818                   : :Chapter 2
00:07:55.517                   : :Chapter 3
00:10:46.229                   : :Chapter 4
00:14:21.277                   : :Chapter 5
00:17:43.020                   : :Chapter 6
00:19:10.941                   : :Chapter 7
00:24:14.536                   : :Chapter 8
00:27:11.630                   : :Chapter 9
00:37:17.610                   : :Chapter 10
00:42:11.821                   : :Chapter 11
00:44:40.428                   : :Chapter 12
00:49:31.051                   : :Chapter 13
00:52:20.471                   : :Chapter 14
00:56:47.613                   : :Chapter 15
01:01:00.240                   : :Chapter 16
01:04:47.175                   : :Chapter 17
01:07:22.997                   : :Chapter 18
01:09:45.098                   : :Chapter 19
01:11:45.426                   : :Chapter 20
01:15:21.017                   : :Chapter 21
01:19:19.255                   : :Chapter 22
01:21:00.314                   : :Chapter 23
01:24:49.668                   : :Chapter 24
01:29:10.846                   : :Chapter 25
01:32:30.420                   : :Chapter 26
01:36:11.391                   : :Chapter 27
01:38:18.851                   : :Chapter 28
01:42:06.370                   : :Chapter 29
01:44:18.794                   : :Chapter 30
01:46:03.774                   : :Chapter 31
01:48:06.730                   : :Chapter 32
01:51:31.977                   : :Chapter 33
01:55:05.399                   : :Chapter 34
01:58:16.214                   : :Chapter 35
02:02:04.359                   : :Chapter 36