10 X-Men Logan 2017 x264 720p Esub BluRay Dual Audio English Hindi Sadeemrdp GOPI SAHI

Logan (2017)


In a future where mutants are nearly extinct, an elderly and weary Logan leads a quiet life. But when Laura, a mutant child pursued by scientists, comes to him for help, he must get her to safety.

Director:

James Mangold

Writers:

James Mangold (story by), Scott Frank (screenplay by) |2 more credits »
8.1/10
616,779

Directed byJames Mangold
Produced by
Screenplay by
Story byJames Mangold
Based on
Starring
Music byMarco Beltrami
CinematographyJohn Mathieson
Edited by
Production
company
Distributed by20th Century Fox
Release date
  • February 17, 2017 (Berlin)
  • March 3, 2017 (United States)
Running time
137 minutes[1]
CountryUnited States
LanguageEnglish
Budget$97–127 million[2][3]
Box office$619 million[2]

Format                         : Matroska
Format version                 : Version 4
File size                      : 1.08 GiB
Duration                       : 2 h 17 min
Overall bit rate               : 1 128 kb/s
Movie name                     : 10 X-Men Logan 2017 GOPI SAHI
Encoded date                   : UTC 2020-06-01 14:48:18

Video
ID                             : 1
Format                         : AVC
Format/Info                    : Advanced Video Codec
Format profile                 : [email protected]
Format settings                : CABAC / 5 Ref Frames
Format settings, CABAC         : Yes
Format settings, Reference fra : 5 frames
Codec ID                       : V_MPEG4/ISO/AVC
Duration                       : 2 h 17 min
Bit rate                       : 899 kb/s
Width                          : 1 280 pixels
Height                         : 538 pixels
Display aspect ratio           : 2.40:1
Frame rate mode                : Constant
Frame rate                     : 23.976 (24000/1001) FPS
Color space                    : YUV
Chroma subsampling             : 4:2:0
Bit depth                      : 8 bits
Scan type                      : Progressive
Bits/(Pixel*Frame)             : 0.054
Stream size                    : 882 MiB (80%)
Title                          : GOPI SAHI
Writing library                : x264 core 157 r2935 545de2f

Audio #1
ID                             : 2
Format                         : AAC LC
Format/Info                    : Advanced Audio Codec Low Complexity
Codec ID                       : A_AAC-2
Duration                       : 2 h 17 min
Bit rate                       : 96.0 kb/s
Channel(s)                     : 2 channels
Channel layout                 : L R
Sampling rate                  : 48.0 kHz
Frame rate                     : 46.875 FPS (1024 SPF)
Compression mode               : Lossy
Delay relative to video        : -21 ms
Stream size                    : 94.6 MiB (9%)
Title                          : GOPI SAHI
Language                       : Hindi
Default                        : Yes
Forced                         : No

Audio #2
ID                             : 3
Format                         : AAC LC
Format/Info                    : Advanced Audio Codec Low Complexity
Codec ID                       : A_AAC-2
Duration                       : 2 h 17 min
Bit rate                       : 96.0 kb/s
Channel(s)                     : 2 channels
Channel layout                 : L R
Sampling rate                  : 48.0 kHz
Frame rate                     : 46.875 FPS (1024 SPF)
Compression mode               : Lossy
Delay relative to video        : -21 ms
Stream size                    : 94.6 MiB (9%)
Title                          : GOPI SAHI
Language                       : English
Default                        : No
Forced                         : No

Text #1
ID                             : 4
Format                         : PGS
Muxing mode                    : zlib
Codec ID                       : S_HDMV/PGS
Codec ID/Info                  : Picture based subtitle format used on BDs/HD-DVDs
Duration                       : 2 h 16 min
Bit rate                       : 20.1 kb/s
Count of elements              : 2772
Stream size                    : 19.6 MiB (2%)
Title                          : GOPI SAHI
Language                       : Hindi
Default                        : Yes
Forced                         : Yes

Text #2
ID                             : 5
Format                         : PGS
Muxing mode                    : zlib
Codec ID                       : S_HDMV/PGS
Codec ID/Info                  : Picture based subtitle format used on BDs/HD-DVDs
Duration                       : 2 h 9 min
Bit rate                       : 25.4 kb/s
Count of elements              : 2718
Stream size                    : 23.5 MiB (2%)
Title                          : GOPI SAHI
Language                       : English
Default                        : No
Forced                         : No

Text #3
ID                             : 6
Format                         : PGS
Muxing mode                    : zlib
Codec ID                       : S_HDMV/PGS
Codec ID/Info                  : Picture based subtitle format used on BDs/HD-DVDs
Duration                       : 2 h 16 min
Bit rate                       : 28.6 kb/s
Count of elements              : 2782
Stream size                    : 27.8 MiB (3%)
Title                          : GOPI SAHI
Language                       : Tamil
Default                        : No
Forced                         : No

Text #4
ID                             : 7
Format                         : PGS
Muxing mode                    : zlib
Codec ID                       : S_HDMV/PGS
Codec ID/Info                  : Picture based subtitle format used on BDs/HD-DVDs
Duration                       : 2 h 16 min
Bit rate                       : 22.5 kb/s
Count of elements              : 2772
Stream size                    : 21.9 MiB (2%)
Title                          : GOPI SAHI
Language                       : Telugu
Default                        : No
Forced                         : No

Menu #1
00:00:00.000                   : :Chapter 1
00:05:35.126                   : :Chapter 2
00:09:18.558                   : :Chapter 3
00:11:41.159                   : :Chapter 4
00:16:23.232                   : :Chapter 5
00:20:11.669                   : :Chapter 6
00:24:26.715                   : :Chapter 7
00:26:11.904                   : :Chapter 8
00:30:13.312                   : :Chapter 9
00:31:59.126                   : :Chapter 10
00:34:56.886                   : :Chapter 11
00:39:53.433                   : :Chapter 12
00:42:55.573                   : :Chapter 13
00:45:03.826                   : :Chapter 14
00:47:53.412                   : :Chapter 15
00:49:39.560                   : :Chapter 16
00:52:14.590                   : :Chapter 17
00:54:30.684                   : :Chapter 18
00:57:44.211                   : :Chapter 19
01:00:10.398                   : :Chapter 20
01:03:53.830                   : :Chapter 21
01:06:55.512                   : :Chapter 22
01:09:54.774                   : :Chapter 23
01:13:15.892                   : :Chapter 24
01:18:43.594                   : :Chapter 25
01:21:50.906                   : :Chapter 26
01:25:52.189                   : :Chapter 27
01:28:38.814                   : :Chapter 28
01:32:41.431                   : :Chapter 29
01:35:29.724                   : :Chapter 30
01:41:03.432                   : :Chapter 31
01:43:39.880                   : :Chapter 32
01:49:39.156                   : :Chapter 33
01:54:20.562                   : :Chapter 34
01:57:00.430                   : :Chapter 35
01:59:20.403                   : :Chapter 36
02:01:14.434                   : :Chapter 37
02:05:09.669                   : :Chapter 38
02:06:40.551                   : :Chapter 39
02:11:08.069                   : :Chapter 40

Menu #2
00:00:00.000                   : en:Chapter 01
00:05:35.126                   : en:Chapter 02
00:09:18.558                   : en:Chapter 03
00:11:41.159                   : en:Chapter 04
00:16:23.232                   : en:Chapter 05
00:20:11.669                   : en:Chapter 06
00:24:26.715                   : en:Chapter 07
00:26:11.904                   : en:Chapter 08
00:30:13.311                   : en:Chapter 09
00:31:59.126                   : en:Chapter 10
00:34:56.886                   : en:Chapter 11
00:39:53.433                   : en:Chapter 12
00:42:55.573                   : en:Chapter 13
00:45:03.826                   : en:Chapter 14
00:47:53.412                   : en:Chapter 15
00:49:39.560                   : en:Chapter 16
00:52:14.423                   : en:Chapter 17
00:54:30.517                   : en:Chapter 18
00:57:44.211                   : en:Chapter 19
01:00:10.398                   : en:Chapter 20
01:03:53.830                   : en:Chapter 21
01:06:55.511                   : en:Chapter 22
01:09:54.774                   : en:Chapter 23
01:13:15.891                   : en:Chapter 24
01:18:43.594                   : en:Chapter 25
01:21:50.906                   : en:Chapter 26
01:25:52.189                   : en:Chapter 27
01:28:38.813                   : en:Chapter 28
01:32:41.431                   : en:Chapter 29
01:35:29.724                   : en:Chapter 30
01:41:03.432                   : en:Chapter 31
01:43:39.880                   : en:Chapter 32
01:49:38.989                   : en:Chapter 33
01:54:20.562                   : en:Chapter 34
01:57:00.430                   : en:Chapter 35
01:59:20.403                   : en:Chapter 36
02:01:14.434                   : en:Chapter 37
02:05:09.627                   : en:Chapter 38
02:06:40.551                   : en:Chapter 39
02:11:07.860                   : en:Chapter 40














USAUPLOAD