1 X-Men 2000 x264 720p Esub BluRay Dual Audio English Hindi Sadeemrdp GOPI SAHI

X-Men (2000)

In a world where mutants (evolved super-powered humans) exist and are discriminated against, two groups form for an inevitable clash: the supremacist Brotherhood, and the pacifist X-Men.

Director:

Bryan Singer

Writers:

Tom DeSanto (story), Bryan Singer (story) |1 more credit »
7.4/10

Directed byBryan Singer
Produced by
Screenplay byDavid Hayter
Story by
Based on
Starring
Music byMichael Kamen
CinematographyNewton Thomas Sigel
Edited by
Production
companies
Distributed by20th Century Fox
Release date
  • July 12, 2000 (Ellis Island)
  • July 14, 2000 (United States)
Running time
104 minutes[1]
CountryUnited States
LanguageEnglish
Budget$75 million[2]
Box office$296.3 million[2][3]


Format                         : Matroska
Format version                 : Version 4
File size                      : 833 MiB
Duration                       : 1 h 44 min
Overall bit rate               : 1 116 kb/s
Movie name                     : X-Men 2000 GOPI SAHI

Video
ID                             : 1
Format                         : AVC
Format/Info                    : Advanced Video Codec
Format profile                 : [email protected]
Format settings                : CABAC / 5 Ref Frames
Format settings, CABAC         : Yes
Format settings, Reference fra : 5 frames
Codec ID                       : V_MPEG4/ISO/AVC
Duration                       : 1 h 44 min
Bit rate                       : 899 kb/s
Width                          : 1 280 pixels
Height                         : 546 pixels
Display aspect ratio           : 2.35:1
Frame rate mode                : Constant
Frame rate                     : 23.976 (24000/1001) FPS
Color space                    : YUV
Chroma subsampling             : 4:2:0
Bit depth                      : 8 bits
Scan type                      : Progressive
Bits/(Pixel*Frame)             : 0.054
Stream size                    : 670 MiB (80%)
Title                          : GOPI SAHI
Writing library                : x264 core 157 r2935 545de2f

Audio #1
ID                             : 2
Format                         : AAC LC
Format/Info                    : Advanced Audio Codec Low Complexity
Codec ID                       : A_AAC-2
Duration                       : 1 h 44 min
Bit rate                       : 96.0 kb/s
Channel(s)                     : 2 channels
Channel layout                 : L R
Sampling rate                  : 48.0 kHz
Frame rate                     : 46.875 FPS (1024 SPF)
Compression mode               : Lossy
Delay relative to video        : -21 ms
Stream size                    : 71.9 MiB (9%)
Title                          : GOPI SAHI
Language                       : Hindi
Default                        : Yes
Forced                         : No

Audio #2
ID                             : 3
Format                         : AAC LC
Format/Info                    : Advanced Audio Codec Low Complexity
Codec ID                       : A_AAC-2
Duration                       : 1 h 44 min
Bit rate                       : 96.0 kb/s
Channel(s)                     : 2 channels
Channel layout                 : L R
Sampling rate                  : 48.0 kHz
Frame rate                     : 46.875 FPS (1024 SPF)
Compression mode               : Lossy
Delay relative to video        : -21 ms
Stream size                    : 71.9 MiB (9%)
Title                          : GOPI SAHI
Language                       : English
Default                        : No
Forced                         : No

Text #1
ID                             : 4
Format                         : PGS
Muxing mode                    : zlib
Codec ID                       : S_HDMV/PGS
Codec ID/Info                  : Picture based subtitle format used on BDs/HD-DVDs
Duration                       : 1 h 34 min
Bit rate                       : 21.6 kb/s
Count of elements              : 1256
Stream size                    : 14.6 MiB (2%)
Title                          : GOPI SAHI
Language                       : English
Default                        : Yes
Forced                         : Yes

Text #2
ID                             : 5
Format                         : PGS
Muxing mode                    : zlib
Codec ID                       : S_HDMV/PGS
Codec ID/Info                  : Picture based subtitle format used on BDs/HD-DVDs
Duration                       : 1 h 34 min
Bit rate                       : 37.5 kb/s
Count of elements              : 1494
Stream size                    : 25.3 MiB (3%)
Title                          : GOPI SAHI
Language                       : English
Default                        : No
Forced                         : No

Menu
00:00:00.000                   : :Main Titles
00:01:19.288                   : :Poland 1944
00:04:18.216                   : :The Kiss of Death
00:05:56.314                   : :The Mutant Problem
00:07:56.059                   : :We Are the Future
00:09:23.688                   : :King of the Cage
00:11:37.697                   : :Freak
00:14:38.503                   : :Two of a Kind
00:18:01.664                   : :In the Midst of Mutants
00:20:49.665                   : :Failure
00:22:09.119                   : :Strange New World
00:23:58.646                   : :A School for the Gifted
00:28:46.016                   : :The Lower Levels
00:29:55.168                   : :Kelly's New Aide
00:32:06.508                   : :The Adamantium Man
00:33:37.682                   : :The Mutant Brotherhood
00:36:37.237                   : :Stay Away from My Girl
00:38:25.261                   : :Rogue's Power
00:41:11.886                   : :One of Us
00:44:13.860                   : :The Runaway
00:45:50.456                   : :Cerebro
00:48:41.544                   : :Sabotage
00:50:22.561                   : :Logan's Promise
00:52:05.831                   : :The Brotherhood Attacks
00:54:58.212                   : :Stand-Off
00:58:11.154                   : :There's a War Coming
00:59:19.765                   : :Magneto's Plan
01:01:54.961                   : :Death of a Mutant
01:03:17.627                   : :A Fallen Leader
01:06:02.459                   : :Assault on a Lady
01:08:39.782                   : :The Attack Plan
01:12:21.379                   : :Mutant vs. Mutant
01:18:03.804                   : :Magneto's Prisoners
01:20:53.223                   : :The X-Men Strike Back
01:24:28.063                   : :To Save a City
01:26:58.547                   : :Logan's Sacrifice
01:29:08.552                   : :Recovery
01:31:47.210                   : :Saying Goodbye
01:33:12.879                   : :Friendly Enemies
01:35:12.415                   : :End Titles








two online