Wedding Anniversary 2017 x264 720p HD Hindi Sadeemrdp GOPI SAHI

Wedding Anniversary (2017)

Kahani met her Prince Charming Nirbhay in Goa for the first time and fell in love. So far their journey together has been excellent and today is their first wedding anniversary.

Director:

Shekhar S. Jha

Writers:

Shekhar S. Jha (screen play and dialogue), Rashid Iqbal (screen play and dialogue)
5.3/10
54

Directed byShekhar S Jha
Produced by
  • Kumar V Mahant
  • Achut Naik
Written by
  • Shekhar S Jha
  • Rashid Iqbal
StarringNana Patekar
Mahie Gill
Priyanshu Chatterjee
Sanket Choukse
Music byAbhishek Ray
CinematographyShanti Bhushan Roy
Edited byAseem Sinha
Production
company
V K Productions
Distributed byBharat Shah
Release date
  • 24 February 2017
Running time
108 minutes[1]
CountryIndia
LanguageHindi
Box office0.24 crore[2]



Format                         : Matroska
Format version                 : Version 4
File size                      : 738 MiB
Duration                       : 1 h 43 min
Overall bit rate               : 997 kb/s
Movie name                     : Wedding Anniversary 2017 GOPI SAHI

Video
ID                             : 1
Format                         : AVC
Format/Info                    : Advanced Video Codec
Format profile                 : [email protected]
Format settings                : CABAC / 5 Ref Frames
Format settings, CABAC         : Yes
Format settings, Reference fra : 5 frames
Codec ID                       : V_MPEG4/ISO/AVC
Duration                       : 1 h 43 min
Bit rate                       : 899 kb/s
Width                          : 1 280 pixels
Height                         : 536 pixels
Display aspect ratio           : 2.40:1
Frame rate mode                : Constant
Frame rate                     : 25.000 FPS
Color space                    : YUV
Chroma subsampling             : 4:2:0
Bit depth                      : 8 bits
Scan type                      : Progressive
Bits/(Pixel*Frame)             : 0.052
Stream size                    : 666 MiB (90%)
Title                          : GOPI SAHI
Writing library                : x264 core 157 r2935 545de2f

Audio
ID                             : 2
Format                         : AAC LC
Format/Info                    : Advanced Audio Codec Low Complexity
Codec ID                       : A_AAC-2
Duration                       : 1 h 43 min
Bit rate                       : 96.0 kb/s
Channel(s)                     : 2 channels
Channel layout                 : L R
Sampling rate                  : 48.0 kHz
Frame rate                     : 46.875 FPS (1024 SPF)
Compression mode               : Lossy
Delay relative to video        : -101 ms
Stream size                    : 70.8 MiB (10%)
Title                          : GOPI SAHI
Language                       : Hindi
Default                        : Yes
Forced                         : No





TORRENT

MAGNET

MULTIUP

ANONFILES

BAYFILES

GDRIVE

INDISHARE

UPLOADFILES

MEDIAFIRE

RECATY

USAUPLOAD

VSHARE