Watchmen 2009 Theatrical Cut x264 720p Esub BluRay Dual Audio English Hindi GOPI SAHI

Watchmen (2009)


In 1985 where former superheroes exist, the murder of a colleague sends active vigilante Rorschach into his own sprawling investigation, uncovering something that could completely change the course of history as we know it.

Director:

Zack Snyder

Writers:

David Hayter (screenplay), Alex Tse (screenplay) |1 more credit »

7.6/10
483,778

Directed byZack Snyder
Produced by
Screenplay by
Based on
Starring
Music byTyler Bates
CinematographyLarry Fong
Edited byWilliam Hoy
Production
companies
Distributed by
  • Warner Bros. Pictures (North America)
  • Paramount Pictures (International)
Release date
Running time
163 minutes[1]
CountryUnited States[1]
LanguageEnglish
Budget$130-138 million[3][4][5]
Box office$185.3 million[3]

Watchmen 2009 Theatrical Cut x264 720p Esub BluRay Dual Audio English Hindi GOPI SAHI

Format : Matroska
Format version : Version 4 / Version 2
File size : 1.26 GiB
Duration : 2 h 43 min
Overall bit rate : 1 109 kb/s
Movie name : Watchmen 2009 Theatrical Cut GOPI SAHI

Video
ID : 1
Format : AVC
Format/Info : Advanced Video Codec
Format profile : [email protected]
Format settings : CABAC / 5 Ref Frames
Format settings, CABAC : Yes
Format settings, ReFrames : 5 frames
Codec ID : V_MPEG4/ISO/AVC
Duration : 2 h 42 min
Bit rate : 899 kb/s
Width : 1 280 pixels
Height : 534 pixels
Display aspect ratio : 2.40:1
Frame rate mode : Constant
Frame rate : 23.976 (24000/1001) FPS
Color space : YUV
Chroma subsampling : 4:2:0
Bit depth : 8 bits
Scan type : Progressive
Bits/(Pixel*Frame) : 0.055
Stream size : 1.02 GiB (81%)
Title : GOPI SAHI
Writing library : x264 core 148

Audio #1
ID : 2
Format : AAC
Format/Info : Advanced Audio Codec
Format profile : LC
Codec ID : A_AAC-2
Duration : 2 h 43 min
Bit rate : 96.0 kb/s
Channel(s) : 2 channels
Channel positions : Front: L R
Sampling rate : 48.0 kHz
Frame rate : 46.875 FPS (1024 SPF)
Compression mode : Lossy
Delay relative to video : 3 s 207 ms
Stream size : 112 MiB (9%)
Title : GOPI SAHI
Language : Hindi
Default : Yes
Forced : No

Audio #2
ID : 3
Format : AAC
Format/Info : Advanced Audio Codec
Format profile : LC
Codec ID : A_AAC-2
Duration : 2 h 42 min
Bit rate : 96.0 kb/s
Channel(s) : 2 channels
Channel positions : Front: L R
Sampling rate : 48.0 kHz
Frame rate : 46.875 FPS (1024 SPF)
Compression mode : Lossy
Delay relative to video : -21 ms
Stream size : 112 MiB (9%)
Title : GOPI SAHI
Language : English
Default : No
Forced : No

Text #1
ID : 4
Format : PGS
Muxing mode : zlib
Codec ID : S_HDMV/PGS
Codec ID/Info : Picture based subtitle format used on BDs/HD-DVDs
Duration : 2 h 34 min
Bit rate : 24.8 kb/s
Count of elements : 3432
Stream size : 27.5 MiB (2%)
Title : GOPI SAHI
Language : Hindi
Default : Yes
Forced : No

Text #2
ID : 5
Format : PGS
Muxing mode : zlib
Codec ID : S_HDMV/PGS
Codec ID/Info : Picture based subtitle format used on BDs/HD-DVDs
Duration : 2 h 34 min
Bit rate : 32.8 kb/s
Count of elements : 3258
Stream size : 36.3 MiB (3%)
Title : GOPI SAHI
Language : English
Default : No
Forced : No