Tom and Jerry Cartoons Complete Collection 1940 2007 DVDRip H264 GOPI SAHI

Tom and Jerry 


Post-production

Adaption of the classic Hanna-Barbera property, which reveals how Tom and Jerry first meet and form their rivalry.

Director:

Tim Story

Writers:

Eric Gravning (screenplay), Katie Silberman |4 more credits »


Tom and Jerry Cartoons Complete Collection 1940 2007 DVDRip H264 GOPI SAHI

Format : MPEG-4
Format profile : Base Media
Codec ID : isom (isom/iso2/mp41)
File size : 80.6 MiB
Duration : 8 min 51 s
Overall bit rate mode : Variable
Overall bit rate : 1 274 kb/s
Writing application : DVDFab

Video
ID : 1
Format : MPEG-4 Visual
Format profile : Advanced [email protected]
Format settings : BVOP
Format settings, BVOP : Yes
Format settings, QPel : No
Format settings, GMC : No warppoints
Format settings, Matrix : Default (H.263)
Codec ID : mp4v-20
Duration : 8 min 51 s
Bit rate mode : Constant
Bit rate : 1 163 kb/s
Width : 640 pixels
Height : 480 pixels
Display aspect ratio : 4:3
Frame rate mode : Constant
Frame rate : 25.000 FPS
Color space : YUV
Chroma subsampling : 4:2:0
Bit depth : 8 bits
Scan type : Progressive
Compression mode : Lossy
Bits/(Pixel*Frame) : 0.151
Stream size : 73.6 MiB (91%)
Writing library : XviD 1.1.2 (UTC 2006-11-01)

Audio
ID : 2
Format : MPEG Audio
Format version : Version 1
Format profile : Layer 3
Format settings : Joint stereo / MS Stereo
Codec ID : mp4a-6B
Duration : 8 min 51 s
Bit rate mode : Variable
Bit rate : 106 kb/s
Nominal bit rate : 128 kb/s
Channel(s) : 2 channels
Sampling rate : 48.0 kHz
Frame rate : 41.667 FPS (1152 SPF)
Compression mode : Lossy
Stream size : 6.70 MiB (8%)
Writing library : LAME3.90.
Encoding settings : -m j -V 4 -q 2 -lowpass 17.6 --abr 128
Default : Yes
Alternate group : 1




SIZE 22 GB


NO LISKS Download Via Magnet