Tiger Zinda Hai 2017 x264 720p Esub BluRay Hindi Sadeemrdp GOPI SAHI

Tiger Zinda Hai (2017)

When a group of Indian and Pakistani nurses are held hostage in Iraq by a terrorist organization, a secret agent is drawn out of hiding to rescue them.

Director:

Ali Abbas Zafar

Writers:

Neelesh Misra (story), Ali Abbas Zafar (story) |2 more credits »
6.0/10
20,600

Directed byAli Abbas Zafar
Produced byAditya Chopra
Written byAli Abbas Zafar
Story byNeelesh Misra
StarringSalman Khan
Katrina Kaif
Narrated bySaqlain Ahmed
Music bySongs:
Vishal-Shekhar
Score:
Julius Packiam
CinematographyMarcin Laskawiec
Edited byRameshwar S. Bhagat
Production
company
Distributed byYash Raj Films
Release date
  • 22 December 2017
Running time
160 minutes
CountryIndia
LanguageHindi
Budget210 crore[1]
Box officeest. ₹565.1 crore[2]




Format                         : Matroska
Format version                 : Version 4
File size                      : 1.13 GiB
Duration                       : 2 h 39 min
Overall bit rate               : 1 014 kb/s
Movie name                     : Tiger Zinda Hai 2017 GOPI SAHI
Encoded date                   : UTC 2020-05-21 21:35:50
Writing application            : mkvmerge v46.0.0 ('No Deeper Escape') 32-bit
Writing library                : libebml v1.3.10 + libmatroska v1.5.2

Video
ID                             : 1
Format                         : AVC
Format/Info                    : Advanced Video Codec
Format profile                 : [email protected]
Format settings                : CABAC / 5 Ref Frames
Format settings, CABAC         : Yes
Format settings, Reference fra : 5 frames
Codec ID                       : V_MPEG4/ISO/AVC
Duration                       : 2 h 39 min
Bit rate                       : 899 kb/s
Width                          : 1 280 pixels
Height                         : 544 pixels
Display aspect ratio           : 2.35:1
Frame rate mode                : Constant
Frame rate                     : 24.000 FPS
Color space                    : YUV
Chroma subsampling             : 4:2:0
Bit depth                      : 8 bits
Scan type                      : Progressive
Bits/(Pixel*Frame)             : 0.054
Stream size                    : 1.00 GiB (89%)
Title                          : GOPI SAHI
Writing library                : x264 core 157 r2935 545de2f

Audio
ID                             : 2
Format                         : AAC LC
Format/Info                    : Advanced Audio Codec Low Complexity
Codec ID                       : A_AAC-2
Duration                       : 2 h 39 min
Bit rate                       : 96.0 kb/s
Channel(s)                     : 2 channels
Channel layout                 : L R
Sampling rate                  : 48.0 kHz
Frame rate                     : 46.875 FPS (1024 SPF)
Compression mode               : Lossy
Delay relative to video        : -21 ms
Stream size                    : 110 MiB (10%)
Title                          : GOPI SAHI
Language                       : Hindi
Default                        : Yes
Forced                         : No

Text #1
ID                             : 3
Format                         : PGS
Muxing mode                    : zlib
Codec ID                       : S_HDMV/PGS
Codec ID/Info                  : Picture based subtitle format used on BDs/HD-DVDs
Duration                       : 2 h 33 min
Bit rate                       : 21.8 kb/s
Count of elements              : 3016
Stream size                    : 23.9 MiB (2%)
Title                          : GOPI SAHI
Language                       : English
Default                        : Yes
Forced                         : No

Text #2
ID                             : 4
Format                         : PGS
Muxing mode                    : zlib
Codec ID                       : S_HDMV/PGS
Codec ID/Info                  : Picture based subtitle format used on BDs/HD-DVDs
Duration                       : 2 h 35 min
Bit rate                       : 15.4 kb/s
Count of elements              : 3068
Stream size                    : 17.1 MiB (1%)
Title                          : GOPI SAHI
Language                       : Arabic
Default                        : No
Forced                         : No

Menu
00:00:00.000                   : :Chapter 1
00:01:32.000                   : :Chapter 2
00:08:41.250                   : :Chapter 3
00:17:46.250                   : :Chapter 4
00:24:54.833                   : :Chapter 5
00:28:38.125                   : :Chapter 6
00:33:27.583                   : :Chapter 7
00:39:18.667                   : :Chapter 8
00:46:10.458                   : :Chapter 9
00:51:50.583                   : :Chapter 10
00:59:08.917                   : :Chapter 11
01:06:13.083                   : :Chapter 12
01:13:37.208                   : :Chapter 13
01:21:20.208                   : :Chapter 14
01:30:21.917                   : :Chapter 15
01:37:11.667                   : :Chapter 16
01:46:10.583                   : :Chapter 17
01:50:50.542                   : :Chapter 18
01:59:53.833                   : :Chapter 19
02:09:24.708                   : :Chapter 20
02:17:12.417                   : :Chapter 21
02:27:13.083                   : :Chapter 22
02:33:20.083                   : :Chapter 23
02:37:13.458                   : :Chapter 24