The Lord of the Rings The Return of the King 2003 EXTENDED x264 720p Esub BluRay Dual Audio English Hindi Sadeemrdp GOPI SAHI

The Lord of the Rings: The Return of the King (2003)


Theatrical release poster
Directed byPeter Jackson
Produced by
Screenplay by
Based onThe Return of the King
by J. R. R. Tolkien
Starring
Music byHoward Shore
CinematographyAndrew Lesnie
Edited byJamie Selkirk
Production
companies
Distributed byNew Line Cinema[1]
Release date
  • 1 December 2003 (Embassy Theatre)
  • 17 December 2003 (United States)
  • 18 December 2003 (New Zealand)
Running time
201 minutes[2]
252 minutes (extended)[3]
Country
  • New Zealand[1]
  • United States[1]
LanguageEnglish
Budget$94 million[4]
Box office$1.142 billion[4]


Format                         : Matroska
Format version                 : Version 4
File size                      : 2.01 GiB
Duration                       : 4 h 23 min
Overall bit rate               : 1 095 kb/s
Movie name                     : The Lord of the Rings The Return of the King 2003 EXTENDED GOPI SAHI


Video
ID                             : 1
Format                         : AVC
Format/Info                    : Advanced Video Codec
Format profile                 : [email protected]
Format settings                : CABAC / 5 Ref Frames
Format settings, CABAC         : Yes
Format settings, Reference fra : 5 frames
Codec ID                       : V_MPEG4/ISO/AVC
Duration                       : 4 h 23 min
Bit rate                       : 899 kb/s
Width                          : 1 280 pixels
Height                         : 530 pixels
Display aspect ratio           : 2.40:1
Frame rate mode                : Constant
Frame rate                     : 23.976 (24000/1001) FPS
Color space                    : YUV
Chroma subsampling             : 4:2:0
Bit depth                      : 8 bits
Scan type                      : Progressive
Bits/(Pixel*Frame)             : 0.055
Stream size                    : 1.65 GiB (82%)
Title                          : GOPI SAHI
Writing library                : x264 core 157 r2935 545de2f

Audio #1
ID                             : 2
Format                         : AAC LC
Format/Info                    : Advanced Audio Codec Low Complexity
Codec ID                       : A_AAC-2
Duration                       : 4 h 23 min
Bit rate                       : 96.0 kb/s
Channel(s)                     : 2 channels
Channel layout                 : L R
Sampling rate                  : 48.0 kHz
Frame rate                     : 46.875 FPS (1024 SPF)
Compression mode               : Lossy
Delay relative to video        : -21 ms
Stream size                    : 182 MiB (9%)
Title                          : GOPI SAHI
Language                       : Hindi
Default                        : Yes
Forced                         : No

Audio #2
ID                             : 3
Format                         : AAC LC
Format/Info                    : Advanced Audio Codec Low Complexity
Codec ID                       : A_AAC-2
Duration                       : 4 h 23 min
Bit rate                       : 96.0 kb/s
Channel(s)                     : 2 channels
Channel layout                 : L R
Sampling rate                  : 48.0 kHz
Frame rate                     : 46.875 FPS (1024 SPF)
Compression mode               : Lossy
Delay relative to video        : -21 ms
Stream size                    : 182 MiB (9%)
Title                          : GOPI SAHI
Language                       : English
Default                        : No
Forced                         : No

Text
ID                             : 4
Format                         : UTF-8
Codec ID                       : S_TEXT/UTF8
Codec ID/Info                  : UTF-8 Plain Text
Duration                       : 4 h 22 min
Bit rate                       : 28 b/s
Count of elements              : 2146
Stream size                    : 54.9 KiB (0%)
Title                          : GOPI SAHI
Language                       : English
Default                        : Yes
Forced                         : No